  0
SECTION
  2
HEADER
  9
$ACADVER
  1
AC1015
  9
$ACADMAINTVER
 70
     6
  9
$DWGCODEPAGE
  3
ANSI_1252
  9
$INSBASE
 10
0.0
 20
0.0
 30
0.0
  9
$EXTMIN
 10
920.0992989472256
 20
738.1925014954597
 30
0.0
  9
$EXTMAX
 10
1475.099298947226
 20
1139.19250149546
 30
0.0
  9
$LIMMIN
 10
0.0
 20
0.0
  9
$LIMMAX
 10
12.0
 20
9.0
  9
$ORTHOMODE
 70
     0
  9
$REGENMODE
 70
     1
  9
$FILLMODE
 70
     1
  9
$QTEXTMODE
 70
     0
  9
$MIRRTEXT
 70
     1
  9
$LTSCALE
 40
1.0
  9
$ATTMODE
 70
     1
  9
$TEXTSIZE
 40
0.2
  9
$TRACEWID
 40
0.05
  9
$TEXTSTYLE
  7
Standard
  9
$CLAYER
  8
0
  9
$CELTYPE
  6
ByLayer
  9
$CECOLOR
 62
   256
  9
$CELTSCALE
 40
1.0
  9
$DISPSILH
 70
     0
  9
$DIMSCALE
 40
1.0
  9
$DIMASZ
 40
0.18
  9
$DIMEXO
 40
0.0625
  9
$DIMDLI
 40
0.38
  9
$DIMRND
 40
0.0
  9
$DIMDLE
 40
0.0
  9
$DIMEXE
 40
0.18
  9
$DIMTP
 40
0.0
  9
$DIMTM
 40
0.0
  9
$DIMTXT
 40
0.18
  9
$DIMCEN
 40
0.09
  9
$DIMTSZ
 40
0.0
  9
$DIMTOL
 70
     0
  9
$DIMLIM
 70
     0
  9
$DIMTIH
 70
     1
  9
$DIMTOH
 70
     1
  9
$DIMSE1
 70
     0
  9
$DIMSE2
 70
     0
  9
$DIMTAD
 70
     0
  9
$DIMZIN
 70
     0
  9
$DIMBLK
  1

  9
$DIMASO
 70
     1
  9
$DIMSHO
 70
     1
  9
$DIMPOST
  1

  9
$DIMAPOST
  1

  9
$DIMALT
 70
     0
  9
$DIMALTD
 70
     2
  9
$DIMALTF
 40
25.4
  9
$DIMLFAC
 40
1.0
  9
$DIMTOFL
 70
     0
  9
$DIMTVP
 40
0.0
  9
$DIMTIX
 70
     0
  9
$DIMSOXD
 70
     0
  9
$DIMSAH
 70
     0
  9
$DIMBLK1
  1

  9
$DIMBLK2
  1

  9
$DIMSTYLE
  2
Standard
  9
$DIMCLRD
 70
     0
  9
$DIMCLRE
 70
     0
  9
$DIMCLRT
 70
     0
  9
$DIMTFAC
 40
1.0
  9
$DIMGAP
 40
0.09
  9
$DIMJUST
 70
     0
  9
$DIMSD1
 70
     0
  9
$DIMSD2
 70
     0
  9
$DIMTOLJ
 70
     1
  9
$DIMTZIN
 70
     0
  9
$DIMALTZ
 70
     0
  9
$DIMALTTZ
 70
     0
  9
$DIMUPT
 70
     0
  9
$DIMDEC
 70
     4
  9
$DIMTDEC
 70
     4
  9
$DIMALTU
 70
     2
  9
$DIMALTTD
 70
     2
  9
$DIMTXSTY
  7
Standard
  9
$DIMAUNIT
 70
     0
  9
$DIMADEC
 70
     0
  9
$DIMALTRND
 40
0.0
  9
$DIMAZIN
 70
     0
  9
$DIMDSEP
 70
    46
  9
$DIMATFIT
 70
     3
  9
$DIMFRAC
 70
     0
  9
$DIMLDRBLK
  1

  9
$DIMLUNIT
 70
     2
  9
$DIMLWD
 70
    -2
  9
$DIMLWE
 70
    -2
  9
$DIMTMOVE
 70
     0
  9
$LUNITS
 70
     2
  9
$LUPREC
 70
     4
  9
$SKETCHINC
 40
0.1
  9
$FILLETRAD
 40
0.5
  9
$AUNITS
 70
     0
  9
$AUPREC
 70
     0
  9
$MENU
  1
.
  9
$ELEVATION
 40
0.0
  9
$PELEVATION
 40
0.0
  9
$THICKNESS
 40
0.0
  9
$LIMCHECK
 70
     0
  9
$CHAMFERA
 40
0.5
  9
$CHAMFERB
 40
0.5
  9
$CHAMFERC
 40
1.0
  9
$CHAMFERD
 40
0.0
  9
$SKPOLY
 70
     0
  9
$TDCREATE
 40
2456238.437096829
  9
$TDUCREATE
 40
2456238.395430162
  9
$TDUPDATE
 40
2456238.43709684
  9
$TDUUPDATE
 40
2456238.395430174
  9
$TDINDWG
 40
0.0000000116
  9
$TDUSRTIMER
 40
0.0000000116
  9
$USRTIMER
 70
     1
  9
$ANGBASE
 50
0.0
  9
$ANGDIR
 70
     0
  9
$PDMODE
 70
     0
  9
$PDSIZE
 40
0.0
  9
$PLINEWID
 40
0.0
  9
$SPLFRAME
 70
     0
  9
$SPLINETYPE
 70
     6
  9
$SPLINESEGS
 70
     8
  9
$HANDSEED
  5
296
  9
$SURFTAB1
 70
     6
  9
$SURFTAB2
 70
     6
  9
$SURFTYPE
 70
     6
  9
$SURFU
 70
     6
  9
$SURFV
 70
     6
  9
$UCSBASE
  2

  9
$UCSNAME
  2

  9
$UCSORG
 10
0.0
 20
0.0
 30
0.0
  9
$UCSXDIR
 10
1.0
 20
0.0
 30
0.0
  9
$UCSYDIR
 10
0.0
 20
1.0
 30
0.0
  9
$UCSORTHOREF
  2

  9
$UCSORTHOVIEW
 70
     0
  9
$UCSORGTOP
 10
0.0
 20
0.0
 30
0.0
  9
$UCSORGBOTTOM
 10
0.0
 20
0.0
 30
0.0
  9
$UCSORGLEFT
 10
0.0
 20
0.0
 30
0.0
  9
$UCSORGRIGHT
 10
0.0
 20
0.0
 30
0.0
  9
$UCSORGFRONT
 10
0.0
 20
0.0
 30
0.0
  9
$UCSORGBACK
 10
0.0
 20
0.0
 30
0.0
  9
$PUCSBASE
  2

  9
$PUCSNAME
  2

  9
$PUCSORG
 10
0.0
 20
0.0
 30
0.0
  9
$PUCSXDIR
 10
1.0
 20
0.0
 30
0.0
  9
$PUCSYDIR
 10
0.0
 20
1.0
 30
0.0
  9
$PUCSORTHOREF
  2

  9
$PUCSORTHOVIEW
 70
     0
  9
$PUCSORGTOP
 10
0.0
 20
0.0
 30
0.0
  9
$PUCSORGBOTTOM
 10
0.0
 20
0.0
 30
0.0
  9
$PUCSORGLEFT
 10
0.0
 20
0.0
 30
0.0
  9
$PUCSORGRIGHT
 10
0.0
 20
0.0
 30
0.0
  9
$PUCSORGFRONT
 10
0.0
 20
0.0
 30
0.0
  9
$PUCSORGBACK
 10
0.0
 20
0.0
 30
0.0
  9
$USERI1
 70
     0
  9
$USERI2
 70
     0
  9
$USERI3
 70
     0
  9
$USERI4
 70
     0
  9
$USERI5
 70
     0
  9
$USERR1
 40
18.0
  9
$USERR2
 40
0.0
  9
$USERR3
 40
0.0
  9
$USERR4
 40
0.0
  9
$USERR5
 40
0.0
  9
$WORLDVIEW
 70
     1
  9
$SHADEDGE
 70
     3
  9
$SHADEDIF
 70
    70
  9
$TILEMODE
 70
     1
  9
$MAXACTVP
 70
    64
  9
$PINSBASE
 10
0.0
 20
0.0
 30
0.0
  9
$PLIMCHECK
 70
     0
  9
$PEXTMIN
 10
1.00000000000000E+20
 20
1.00000000000000E+20
 30
1.00000000000000E+20
  9
$PEXTMAX
 10
-1.00000000000000E+20
 20
-1.00000000000000E+20
 30
-1.00000000000000E+20
  9
$PLIMMIN
 10
0.0
 20
0.0
  9
$PLIMMAX
 10
12.0
 20
9.0
  9
$UNITMODE
 70
     0
  9
$VISRETAIN
 70
     1
  9
$PLINEGEN
 70
     0
  9
$PSLTSCALE
 70
     1
  9
$TREEDEPTH
 70
  3020
  9
$CMLSTYLE
  2
Standard
  9
$CMLJUST
 70
     0
  9
$CMLSCALE
 40
1.0
  9
$PROXYGRAPHICS
 70
     1
  9
$MEASUREMENT
 70
     1
  9
$CELWEIGHT
370
    -1
  9
$ENDCAPS
280
     0
  9
$JOINSTYLE
280
     0
  9
$LWDISPLAY
290
     0
  9
$INSUNITS
 70
     1
  9
$HYPERLINKBASE
  1

  9
$STYLESHEET
  1

  9
$XEDIT
290
     1
  9
$CEPSNTYPE
380
     0
  9
$PSTYLEMODE
290
     1
  9
$FINGERPRINTGUID
  2
{B47A59BC-23B9-4011-955C-496EC4B71B3E}
  9
$VERSIONGUID
  2
{FAEB1C32-E019-11D5-929B-00C0DF256EC4}
  9
$EXTNAMES
290
     1
  9
$PSVPSCALE
 40
0.0
  9
$OLESTARTUP
290
     0
  0
ENDSEC
  0
SECTION
  2
CLASSES
  0
CLASS
  1
ACDBDICTIONARYWDFLT
  2
AcDbDictionaryWithDefault
  3
ObjectDBX Classes
 90
        0
280
     0
281
     0
  0
CLASS
  1
VISUALSTYLE
  2
AcDbVisualStyle
  3
ObjectDBX Classes
 90
     4095
280
     0
281
     0
  0
CLASS
  1
MATERIAL
  2
AcDbMaterial
  3
ObjectDBX Classes
 90
     1153
280
     0
281
     0
  0
CLASS
  1
SCALE
  2
AcDbScale
  3
ObjectDBX Classes
 90
     1153
280
     0
281
     0
  0
CLASS
  1

  2
exOdDbPolyline
  3

 90
        0
280
     0
281
     1
  0
CLASS
  1

  2
exOdDbCircle
  3

 90
        0
280
     0
281
     1
  0
CLASS
  1

  2
exOdDbSpline
  3

 90
        0
280
     0
281
     1
  0
CLASS
  1
DICTIONARYVAR
  2
AcDbDictionaryVar
  3
ObjectDBX Classes
 90
        0
280
     0
281
     0
  0
CLASS
  1
ACDBPLACEHOLDER
  2
AcDbPlaceHolder
  3
ObjectDBX Classes
 90
        0
280
     0
281
     0
  0
CLASS
  1
LAYOUT
  2
AcDbLayout
  3
ObjectDBX Classes
 90
        0
280
     0
281
     0
  0
ENDSEC
  0
SECTION
  2
TABLES
  0
TABLE
  2
VPORT
  5
8
330
0
100
AcDbSymbolTable
 70
     1
  0
VPORT
  5
29
330
8
100
AcDbSymbolTableRecord
100
AcDbViewportTableRecord
  2
*Active
 70
     0
 10
0.0
 20
0.0
 11
1.0
 21
1.0
 12
1197.599298947226
 22
938.6925014954599
 13
0.0
 23
0.0
 14
0.5
 24
0.5
 15
0.5
 25
0.5
 16
0.0
 26
0.0
 36
1.0
 17
0.0
 27
0.0
 37
0.0
 40
441.1000000000003
 41
1.60267857142857
 42
50.0
 43
0.0
 44
0.0
 50
0.0
 51
0.0
 71
     0
 72
   100
 73
     1
 74
     3
 75
     0
 76
     0
 77
     0
 78
     0
281
     0
 65
     1
110
0.0
120
0.0
130
0.0
111
1.0
121
0.0
131
0.0
112
0.0
122
1.0
132
0.0
 79
     0
146
0.0
  0
ENDTAB
  0
TABLE
  2
LTYPE
  5
5
330
0
100
AcDbSymbolTable
 70
     8
  0
LTYPE
  5
14
330
5
100
AcDbSymbolTableRecord
100
AcDbLinetypeTableRecord
  2
ByBlock
 70
     0
  3

 72
    65
 73
     0
 40
0.0
  0
LTYPE
  5
15
330
5
100
AcDbSymbolTableRecord
100
AcDbLinetypeTableRecord
  2
ByLayer
 70
     0
  3

 72
    65
 73
     0
 40
0.0
  0
LTYPE
  5
16
330
5
100
AcDbSymbolTableRecord
100
AcDbLinetypeTableRecord
  2
Continuous
 70
     0
  3
Solid line
 72
    65
 73
     0
 40
0.0
  0
LTYPE
  5
3F
330
5
100
AcDbSymbolTableRecord
100
AcDbLinetypeTableRecord
  2
DASHED
 70
     0
  3
Dashed
 72
    65
 73
     2
 40
15.0
 49
7.0
 74
     0
 49
-8.0
 74
     0
  0
LTYPE
  5
40
330
5
100
AcDbSymbolTableRecord
100
AcDbLinetypeTableRecord
  2
DOTTED
 70
     0
  3
Dotted
 72
    65
 73
     2
 40
1.0
 49
0.0
 74
     0
 49
-1.0
 74
     0
  0
LTYPE
  5
41
330
5
100
AcDbSymbolTableRecord
100
AcDbLinetypeTableRecord
  2
DOT_CENTER
 70
     0
  3
Dot_Center
 72
    65
 73
     4
 40
14.0
 49
12.0
 74
     0
 49
-1.0
 74
     0
 49
0.0
 74
     0
 49
-1.0
 74
     0
  0
LTYPE
  5
42
330
5
100
AcDbSymbolTableRecord
100
AcDbLinetypeTableRecord
  2
LONG_DASHED
 70
     0
  3
Long_Dashed
 72
    65
 73
     2
 40
15.0
 49
10.0
 74
     0
 49
-5.0
 74
     0
  0
LTYPE
  5
43
330
5
100
AcDbSymbolTableRecord
100
AcDbLinetypeTableRecord
  2
DASH_CENTER
 70
     0
  3
Dash_Center
 72
    65
 73
     4
 40
14.0
 49
11.0
 74
     0
 49
-1.0
 74
     0
 49
1.0
 74
     0
 49
-1.0
 74
     0
  0
LTYPE
  5
44
330
5
100
AcDbSymbolTableRecord
100
AcDbLinetypeTableRecord
  2
PHANTOM
 70
     0
  3
Phantom
 72
    65
 73
     6
 40
13.0
 49
10.0
 74
     0
 49
-1.0
 74
     0
 49
0.0
 74
     0
 49
-1.0
 74
     0
 49
0.0
 74
     0
 49
-1.0
 74
     0
  0
LTYPE
  5
45
330
5
100
AcDbSymbolTableRecord
100
AcDbLinetypeTableRecord
  2
CENTER_DASH_DASH
 70
     0
  3
Center_Dash_Dash
 72
    65
 73
     6
 40
14.0
 49
9.0
 74
     0
 49
-1.0
 74
     0
 49
1.0
 74
     0
 49
-1.0
 74
     0
 49
1.0
 74
     0
 49
-1.0
 74
     0
  0
ENDTAB
  0
TABLE
  2
LAYER
  5
2
330
0
100
AcDbSymbolTable
 70
     5
  0
LAYER
  5
10
330
2
100
AcDbSymbolTableRecord
100
AcDbLayerTableRecord
  2
0
 70
     0
 62
     7
  6
Continuous
370
    -3
390
F
  0
LAYER
  5
46
330
2
100
AcDbSymbolTableRecord
100
AcDbLayerTableRecord
  2
1
 70
     0
 62
     7
  6
Continuous
370
    -3
390
F
  0
LAYER
  5
47
330
2
100
AcDbSymbolTableRecord
100
AcDbLayerTableRecord
  2
Schraffur
 70
     0
 62
     7
  6
Continuous
370
    -3
390
F
  0
LAYER
  5
48
330
2
100
AcDbSymbolTableRecord
100
AcDbLayerTableRecord
  2
Skizziergeometrie_ISO_
 70
     0
 62
     7
  6
Continuous
370
    -3
390
F
  0
LAYER
  5
49
330
2
100
AcDbSymbolTableRecord
100
AcDbLayerTableRecord
  2
Symbole_ISO_
 70
     0
 62
     7
  6
Continuous
370
    -3
390
F
  0
ENDTAB
  0
TABLE
  2
STYLE
  5
3
330
0
100
AcDbSymbolTable
 70
     6
  0
STYLE
  5
11
330
3
100
AcDbSymbolTableRecord
100
AcDbTextStyleTableRecord
  2
Standard
 70
     0
 40
0.0
 41
1.0
 50
0.0
 71
     0
 42
0.2
  3
txt
  4

  0
STYLE
  5
75
330
3
100
AcDbSymbolTableRecord
100
AcDbTextStyleTableRecord
  2
CONVERTER_11
 70
     0
 40
0.0
 41
0.67499998211861
 50
0.0
 71
     0
 42
0.2
  3
txt.shx
  4

  0
STYLE
  5
234
330
3
100
AcDbSymbolTableRecord
100
AcDbTextStyleTableRecord
  2
CONVERTER_12
 70
     0
 40
0.0
 41
0.9
 50
0.0
 71
     0
 42
0.2
  3
txt.shx
  4

  0
STYLE
  5
23A
330
3
100
AcDbSymbolTableRecord
100
AcDbTextStyleTableRecord
  2
CONVERTER_13
 70
     0
 40
0.0
 41
0.89999994635582
 50
0.0
 71
     0
 42
0.2
  3
txt.shx
  4

  0
STYLE
  5
23E
330
3
100
AcDbSymbolTableRecord
100
AcDbTextStyleTableRecord
  2
CONVERTER_14
 70
     0
 40
0.0
 41
0.9
 50
0.0
 71
     0
 42
0.2
  3
txt.shx
  4

  0
STYLE
  5
248
330
3
100
AcDbSymbolTableRecord
100
AcDbTextStyleTableRecord
  2
CONVERTER_15
 70
     0
 40
0.0
 41
0.95
 50
0.0
 71
     0
 42
0.2
  3
simplex.shx
  4

  0
ENDTAB
  0
TABLE
  2
VIEW
  5
6
330
0
100
AcDbSymbolTable
 70
     0
  0
ENDTAB
  0
TABLE
  2
UCS
  5
7
330
0
100
AcDbSymbolTable
 70
     0
  0
ENDTAB
  0
TABLE
  2
APPID
  5
9
330
0
100
AcDbSymbolTable
 70
     1
  0
APPID
  5
12
330
9
100
AcDbSymbolTableRecord
100
AcDbRegAppTableRecord
  2
ACAD
 70
     0
  0
ENDTAB
  0
TABLE
  2
DIMSTYLE
  5
A
330
0
100
AcDbSymbolTable
 70
     4
100
AcDbDimStyleTable
  0
DIMSTYLE
105
27
330
A
100
AcDbSymbolTableRecord
100
AcDbDimStyleTableRecord
  2
Standard
 70
     0
340
11
  0
DIMSTYLE
105
24C
102
{ACAD_REACTORS
330
24D
102
}
330
A
100
AcDbSymbolTableRecord
100
AcDbDimStyleTableRecord
  2
ME10_DIM_10
 70
     0
 41
6.0
 42
1.0
 44
2.0
 73
     0
 74
     0
 78
     8
140
6.0
147
4.0
172
     1
173
     1
174
     1
175
     1
176
     2
177
     2
178
     4
271
     0
340
248
  0
DIMSTYLE
105
258
102
{ACAD_REACTORS
330
259
102
}
330
A
100
AcDbSymbolTableRecord
100
AcDbDimStyleTableRecord
  2
ME10_DIM_11
 70
     0
 41
6.0
 42
1.0
 44
2.0
 73
     0
 74
     0
 78
     8
140
6.0
147
4.0
172
     1
173
     1
174
     1
175
     1
176
     2
177
     2
178
     4
271
     2
340
248
  0
DIMSTYLE
105
264
102
{ACAD_REACTORS
330
265
102
}
330
A
100
AcDbSymbolTableRecord
100
AcDbDimStyleTableRecord
  2
ME10_DIM_12
 70
     0
 41
6.0
 42
1.0
 44
2.0
 73
     0
 74
     0
 78
     8
140
6.0
147
4.0
172
     1
173
     1
174
     1
175
     1
176
     2
177
     2
178
     4
271
     0
340
248
  0
ENDTAB
  0
TABLE
  2
BLOCK_RECORD
  5
1
330
0
100
AcDbSymbolTable
 70
     5
  0
BLOCK_RECORD
  5
1F
330
1
100
AcDbSymbolTableRecord
100
AcDbBlockTableRecord
  2
*Model_Space
340
22
  0
BLOCK_RECORD
  5
1B
330
1
100
AcDbSymbolTableRecord
100
AcDbBlockTableRecord
  2
*Paper_Space
340
1E
  0
BLOCK_RECORD
  5
23
330
1
100
AcDbSymbolTableRecord
100
AcDbBlockTableRecord
  2
*Paper_Space0
340
26
  0
BLOCK_RECORD
  5
4A
330
1
100
AcDbSymbolTableRecord
100
AcDbBlockTableRecord
  2
Ränder_Ilme_Rahmen_A4_quer
340
0
102
{BLKREFS
331
6F
102
}
  0
BLOCK_RECORD
  5
241
330
1
100
AcDbSymbolTableRecord
100
AcDbBlockTableRecord
  2
*D2
340
0
  0
BLOCK_RECORD
  5
24E
330
1
100
AcDbSymbolTableRecord
100
AcDbBlockTableRecord
  2
*D3
340
0
  0
BLOCK_RECORD
  5
25A
330
1
100
AcDbSymbolTableRecord
100
AcDbBlockTableRecord
  2
*D4
340
0
  0
ENDTAB
  0
ENDSEC
  0
SECTION
  2
BLOCKS
  0
BLOCK
  5
20
330
1F
100
AcDbEntity
  8
0
100
AcDbBlockBegin
  2
*Model_Space
 70
     0
 10
0.0
 20
0.0
 30
0.0
  3
*Model_Space
  1

  0
ENDBLK
  5
21
330
1F
100
AcDbEntity
  8
0
100
AcDbBlockEnd
  0
BLOCK
  5
1C
330
1B
100
AcDbEntity
 67
     1
  8
0
100
AcDbBlockBegin
  2
*Paper_Space
 70
     0
 10
0.0
 20
0.0
 30
0.0
  3
*Paper_Space
  1

  0
ENDBLK
  5
1D
330
1B
100
AcDbEntity
 67
     1
  8
0
100
AcDbBlockEnd
  0
BLOCK
  5
24
330
23
100
AcDbEntity
  8
0
100
AcDbBlockBegin
  2
*Paper_Space0
 70
     0
 10
0.0
 20
0.0
 30
0.0
  3
*Paper_Space0
  1

  0
ENDBLK
  5
25
330
23
100
AcDbEntity
  8
0
100
AcDbBlockEnd
  0
BLOCK
  5
4B
330
4A
100
AcDbEntity
  8
0
100
AcDbBlockBegin
  2
Ränder_Ilme_Rahmen_A4_quer
 70
     0
 10
900.5992989472256
 20
718.69250149546
 30
0.0
  3
Ränder_Ilme_Rahmen_A4_quer
  1

  0
LWPOLYLINE
  5
70
330
4A
100
AcDbEntity
  8
Skizziergeometrie_ISO_
  6
Continuous
 62
     7
100
AcDbPolyline
 90
        2
 70
     0
 43
0.5
 10
920.5992989472256
 20
738.69250149546
 10
920.5992989472256
 20
1098.69250149546
  0
LWPOLYLINE
  5
71
330
4A
100
AcDbEntity
  8
Skizziergeometrie_ISO_
  6
Continuous
 62
     7
100
AcDbPolyline
 90
        2
 70
     0
 43
0.5
 10
920.5992989472256
 20
1098.69250149546
 10
1474.599298947226
 20
1098.69250149546
  0
LWPOLYLINE
  5
72
330
4A
100
AcDbEntity
  8
Skizziergeometrie_ISO_
  6
Continuous
 62
     7
100
AcDbPolyline
 90
        2
 70
     0
 43
0.5
 10
920.5992989472256
 20
738.69250149546
 10
1474.599298947226
 20
738.69250149546
  0
LWPOLYLINE
  5
73
330
4A
100
AcDbEntity
  8
Skizziergeometrie_ISO_
  6
Continuous
 62
     7
100
AcDbPolyline
 90
        2
 70
     0
 43
0.5
 10
1197.599298947226
 20
1138.69250149546
 10
1197.599298947226
 20
1110.69250149546
  0
LWPOLYLINE
  5
74
330
4A
100
AcDbEntity
  8
Skizziergeometrie_ISO_
  6
Continuous
 62
     7
100
AcDbPolyline
 90
        2
 70
     0
 43
0.5
 10
1474.599298947226
 20
1098.69250149546
 10
1474.599298947226
 20
738.69250149546
  0
MTEXT
  5
76
330
4A
100
AcDbEntity
  8
Symbole_ISO_
 62
     7
100
AcDbMText
 10
1200.999298947226
 20
1111.52226165553
 30
0.0
 40
7.0
 41
0.0
 71
     2
 72
     1
  1
Diritti riservati     All rights reserved
  7
CONVERTER_11
 73
     1
 44
0.75727272727273
  0
ENDBLK
  5
4C
330
4A
100
AcDbEntity
  8
0
100
AcDbBlockEnd
  0
BLOCK
  5
24A
330
241
100
AcDbEntity
  8
0
100
AcDbBlockBegin
  2
*D2
 70
     1
 10
0.0
 20
0.0
 30
0.0
  3
*D2
  1

  0
LINE
  5
242
330
241
100
AcDbEntity
  8
1
  6
Continuous
 62
     2
100
AcDbLine
 10
1308.844892039951
 20
983.785989520138
 30
0.0
 11
1308.844892039951
 21
1005.385103957024
 31
0.0
  0
LINE
  5
243
330
241
100
AcDbEntity
  8
1
  6
Continuous
 62
     2
100
AcDbLine
 10
1308.844892039951
 20
1022.385103957024
 30
0.0
 11
1308.844892039951
 21
1043.98421839391
 31
0.0
  0
LINE
  5
244
330
241
100
AcDbEntity
  8
1
  6
Continuous
 62
     2
100
AcDbLine
 10
1323.599298947226
 20
983.785989520138
 30
0.0
 11
1306.844892039951
 21
983.785989520138
 31
0.0
  0
LINE
  5
245
330
241
100
AcDbEntity
  8
1
  6
Continuous
 62
     2
100
AcDbLine
 10
1323.599298947226
 20
1043.98421839391
 30
0.0
 11
1306.844892039951
 21
1043.98421839391
 31
0.0
  0
SOLID
  5
246
330
241
100
AcDbEntity
  8
1
 62
     2
100
AcDbTrace
 10
1308.054977054427
 20
989.785989520138
 30
0.0
 11
1309.634807025475
 21
989.785989520138
 31
0.0
 12
1308.844892039951
 22
983.785989520138
 32
0.0
 13
1308.844892039951
 23
983.785989520138
 33
0.0
  0
SOLID
  5
247
330
241
100
AcDbEntity
  8
1
 62
     2
100
AcDbTrace
 10
1309.634807025475
 20
1037.98421839391
 30
0.0
 11
1308.054977054427
 21
1037.98421839391
 31
0.0
 12
1308.844892039951
 22
1043.98421839391
 32
0.0
 13
1308.844892039951
 23
1043.98421839391
 33
0.0
  0
MTEXT
  5
249
330
241
100
AcDbEntity
  8
1
 62
     4
100
AcDbMText
 10
1311.844892039951
 20
1009.385103957024
 30
0.0
 40
6.0
 41
0.0
 71
     7
 72
     1
  1
60
  7
CONVERTER_15
 11
0.0
 21
1.0
 31
0.0
 73
     1
 44
0.60024009603842
  0
ENDBLK
  5
24B
330
241
100
AcDbEntity
  8
0
100
AcDbBlockEnd
  0
BLOCK
  5
256
330
24E
100
AcDbEntity
  8
0
100
AcDbBlockBegin
  2
*D3
 70
     1
 10
0.0
 20
0.0
 30
0.0
  3
*D3
  1

  0
LINE
  5
24F
330
24E
100
AcDbEntity
  8
1
  6
Continuous
 62
     2
100
AcDbLine
 10
1228.592963731473
 20
892.9450184306645
 30
0.0
 11
1228.592963731473
 21
884.445018411757
 31
0.0
  0
LINE
  5
250
330
24E
100
AcDbEntity
  8
1
  6
Continuous
 62
     2
100
AcDbLine
 10
1228.592963731473
 20
867.445018411757
 30
0.0
 11
1228.592963731473
 21
858.9450183928493
 31
0.0
  0
LINE
  5
251
330
24E
100
AcDbEntity
  8
1
  6
Continuous
 62
     2
100
AcDbLine
 10
1206.592963731473
 20
892.9450184306645
 30
0.0
 11
1230.592963731473
 21
892.9450184306645
 31
0.0
  0
LINE
  5
252
330
24E
100
AcDbEntity
  8
1
  6
Continuous
 62
     2
100
AcDbLine
 10
1185.026883275132
 20
858.9450183928493
 30
0.0
 11
1230.592963731473
 21
858.9450183928493
 31
0.0
  0
SOLID
  5
253
330
24E
100
AcDbEntity
  8
1
 62
     2
100
AcDbTrace
 10
1229.382878716997
 20
886.9450184306645
 30
0.0
 11
1227.803048745949
 21
886.9450184306645
 31
0.0
 12
1228.592963731473
 22
892.9450184306645
 32
0.0
 13
1228.592963731473
 23
892.9450184306645
 33
0.0
  0
SOLID
  5
254
330
24E
100
AcDbEntity
  8
1
 62
     2
100
AcDbTrace
 10
1227.803048745949
 20
864.9450183928493
 30
0.0
 11
1229.382878716997
 21
864.9450183928493
 31
0.0
 12
1228.592963731473
 22
858.9450183928493
 32
0.0
 13
1228.592963731473
 23
858.9450183928493
 33
0.0
  0
MTEXT
  5
255
330
24E
100
AcDbEntity
  8
1
 62
     4
100
AcDbMText
 10
1231.592963731473
 20
871.445018411757
 30
0.0
 40
6.0
 41
0.0
 71
     7
 72
     1
  1
34
  7
CONVERTER_15
 11
0.0
 21
1.0
 31
0.0
 73
     1
 44
0.60024009603842
  0
ENDBLK
  5
257
330
24E
100
AcDbEntity
  8
0
100
AcDbBlockEnd
  0
BLOCK
  5
262
330
25A
100
AcDbEntity
  8
0
100
AcDbBlockBegin
  2
*D4
 70
     1
 10
0.0
 20
0.0
 30
0.0
  3
*D4
  1

  0
LINE
  5
25B
330
25A
100
AcDbEntity
  8
1
  6
Continuous
 62
     2
100
AcDbLine
 10
1065.092334859731
 20
969.0859895201357
 30
0.0
 11
1129.033649295602
 21
969.0859895201357
 31
0.0
  0
LINE
  5
25C
330
25A
100
AcDbEntity
  8
1
  6
Continuous
 62
     2
100
AcDbLine
 10
1149.633649295602
 20
969.0859895201357
 30
0.0
 11
1213.574963731473
 21
969.0859895201357
 31
0.0
  0
LINE
  5
25D
330
25A
100
AcDbEntity
  8
1
  6
Continuous
 62
     2
100
AcDbLine
 10
1065.092334859731
 20
990.7859895201359
 30
0.0
 11
1065.092334859731
 21
967.0859895201357
 31
0.0
  0
LINE
  5
25E
330
25A
100
AcDbEntity
  8
1
  6
Continuous
 62
     2
100
AcDbLine
 10
1213.574963731473
 20
1028.984218393908
 30
0.0
 11
1213.574963731473
 21
967.0859895201357
 31
0.0
  0
SOLID
  5
25F
330
25A
100
AcDbEntity
  8
1
 62
     2
100
AcDbTrace
 10
1071.092334859731
 20
969.8759045056601
 30
0.0
 11
1071.092334859731
 21
968.2960745346114
 31
0.0
 12
1065.092334859731
 22
969.0859895201357
 32
0.0
 13
1065.092334859731
 23
969.0859895201357
 33
0.0
  0
SOLID
  5
260
330
25A
100
AcDbEntity
  8
1
 62
     2
100
AcDbTrace
 10
1207.574963731473
 20
968.2960745346114
 30
0.0
 11
1207.574963731473
 21
969.8759045056601
 31
0.0
 12
1213.574963731473
 22
969.0859895201357
 32
0.0
 13
1213.574963731473
 23
969.0859895201357
 33
0.0
  0
MTEXT
  5
261
330
25A
100
AcDbEntity
  8
1
 62
     4
100
AcDbMText
 10
1133.033649295602
 20
966.0859895201357
 30
0.0
 40
6.0
 41
0.0
 71
     7
 72
     1
  1
148
  7
CONVERTER_15
 11
0.9999999999970619
 21
2.424068405545306E-6
 31
0.0
 73
     1
 44
0.60024009603842
  0
ENDBLK
  5
263
330
25A
100
AcDbEntity
  8
0
100
AcDbBlockEnd
  0
ENDSEC
  0
SECTION
  2
ENTITIES
  0
INSERT
  5
6F
330
1F
100
AcDbEntity
  8
0
100
AcDbBlockReference
  2
Ränder_Ilme_Rahmen_A4_quer
 10
900.5992989472256
 20
718.69250149546
 30
0.0
  0
LINE
  5
77
330
1F
100
AcDbEntity
  8
0
  6
Continuous
 62
     7
100
AcDbLine
 10
1126.912243434488
 20
983.7859895201359
 30
0.0
 11
1127.022607516369
 21
983.7859895201359
 31
0.0
  0
LINE
  5
78
330
1F
100
AcDbEntity
  8
0
  6
Continuous
 62
     7
100
AcDbLine
 10
1125.417951387351
 20
983.7859895201359
 30
0.0
 11
1126.912243434488
 21
983.7859895201359
 31
0.0
  0
LINE
  5
79
330
1F
100
AcDbEntity
  8
0
  6
Continuous
 62
     7
100
AcDbLine
 10
1127.022607516369
 20
983.7859895201359
 30
0.0
 11
1128.516899563507
 21
983.7859895201359
 31
0.0
  0
LINE
  5
7A
330
1F
100
AcDbEntity
  8
0
  6
Continuous
 62
     7
100
AcDbLine
 10
1135.763029249122
 20
983.7859895201359
 30
0.0
 11
1137.25732129626
 21
983.7859895201359
 31
0.0
  0
LINE
  5
7B
330
1F
100
AcDbEntity
  8
0
  6
Continuous
 62
     7
100
AcDbLine
 10
1128.516899563507
 20
983.7859895201359
 30
0.0
 11
1135.763029249122
 21
983.7859895201359
 31
0.0
  0
LINE
  5
7C
330
1F
100
AcDbEntity
  8
0
  6
Continuous
 62
     7
100
AcDbLine
 10
1137.25732129626
 20
983.7859895201359
 30
0.0
 11
1137.36768537814
 21
983.7859895201359
 31
0.0
  0
LINE
  5
7D
330
1F
100
AcDbEntity
  8
0
  6
Continuous
 62
     7
100
AcDbLine
 10
1137.36768537814
 20
983.7859895201359
 30
0.0
 11
1138.861977425278
 21
983.7859895201359
 31
0.0
  0
LINE
  5
7E
330
1F
100
AcDbEntity
  8
0
  6
Continuous
 62
     2
100
AcDbLine
 10
1135.763029249122
 20
984.7859895201359
 30
0.0
 11
1137.556179705687
 21
984.7859895201359
 31
0.0
  0
LINE
  5
7F
330
1F
100
AcDbEntity
  8
0
  6
Continuous
 62
     2
100
AcDbLine
 10
1126.613385025061
 20
984.7859895201359
 30
0.0
 11
1126.723749106941
 21
984.7859895201359
 31
0.0
  0
LINE
  5
80
330
1F
100
AcDbEntity
  8
0
  6
Continuous
 62
     2
100
AcDbLine
 10
1125.417951387351
 20
984.7859895201359
 30
0.0
 11
1126.613385025061
 21
984.7859895201359
 31
0.0
  0
LINE
  5
81
330
1F
100
AcDbEntity
  8
0
  6
Continuous
 62
     2
100
AcDbLine
 10
1126.723749106941
 20
984.7859895201359
 30
0.0
 11
1128.516899563507
 21
984.7859895201359
 31
0.0
  0
LINE
  5
82
330
1F
100
AcDbEntity
  8
0
  6
Continuous
 62
     2
100
AcDbLine
 10
1128.516899563507
 20
984.7859895201359
 30
0.0
 11
1135.763029249122
 21
984.7859895201359
 31
0.0
  0
LINE
  5
83
330
1F
100
AcDbEntity
  8
0
  6
Continuous
 62
     2
100
AcDbLine
 10
1137.666543787568
 20
984.7859895201359
 30
0.0
 11
1138.861977425278
 21
984.7859895201359
 31
0.0
  0
LINE
  5
84
330
1F
100
AcDbEntity
  8
0
  6
Continuous
 62
     2
100
AcDbLine
 10
1137.556179705687
 20
984.7859895201359
 30
0.0
 11
1137.666543787568
 21
984.7859895201359
 31
0.0
  0
LINE
  5
85
330
1F
100
AcDbEntity
  8
0
  6
Continuous
 62
     7
100
AcDbLine
 10
1065.110334859732
 20
892.9450184306645
 30
0.0
 11
1065.110334859732
 21
887.9450184306646
 31
0.0
  0
LINE
  5
86
330
1F
100
AcDbEntity
  8
0
  6
Continuous
 62
     7
100
AcDbLine
 10
1073.110334859732
 20
892.9450184306645
 30
0.0
 11
1065.110334859732
 21
892.9450184306645
 31
0.0
  0
LINE
  5
87
330
1F
100
AcDbEntity
  8
0
  6
Continuous
 62
     2
100
AcDbLine
 10
1073.110334859732
 20
887.9450184306646
 30
0.0
 11
1065.110334859732
 21
887.9450184306646
 31
0.0
  0
LINE
  5
88
330
1F
100
AcDbEntity
  8
0
  6
Continuous
 62
     7
100
AcDbLine
 10
1184.542963731995
 20
886.9450184306646
 30
0.0
 11
1094.260334859732
 21
886.9450184306646
 31
0.0
  0
LINE
  5
89
330
1F
100
AcDbEntity
  8
0
  6
Continuous
 62
     7
100
AcDbLine
 10
1073.110334859732
 20
886.9450184306646
 30
0.0
 11
1066.110334859732
 21
886.9450184306646
 31
0.0
  0
LINE
  5
8A
330
1F
100
AcDbEntity
  8
0
  6
Continuous
 62
     2
100
AcDbLine
 10
1073.110334859732
 20
892.9450184306645
 30
0.0
 11
1073.110334859732
 21
887.9450184306646
 31
0.0
  0
LINE
  5
8B
330
1F
100
AcDbEntity
  8
0
  6
Continuous
 62
     2
100
AcDbLine
 10
1077.260334859732
 20
892.9450184306645
 30
0.0
 11
1077.260334859732
 21
887.9450184306646
 31
0.0
  0
LINE
  5
8C
330
1F
100
AcDbEntity
  8
0
  6
Continuous
 62
     2
100
AcDbLine
 10
1073.110334859732
 20
887.9450184306646
 30
0.0
 11
1077.260334859732
 21
887.9450184306646
 31
0.0
  0
LINE
  5
8D
330
1F
100
AcDbEntity
  8
0
  6
Continuous
 62
     7
100
AcDbLine
 10
1083.260334859732
 20
892.9450184306645
 30
0.0
 11
1083.260334859732
 21
887.9450184306646
 31
0.0
  0
LINE
  5
8E
330
1F
100
AcDbEntity
  8
0
  6
Continuous
 62
     2
100
AcDbLine
 10
1205.592963731473
 20
887.9450184306646
 30
0.0
 11
1094.260334859732
 21
887.9450184306646
 31
0.0
  0
LINE
  5
8F
330
1F
100
AcDbEntity
  8
0
  6
Continuous
 62
     2
100
AcDbLine
 10
1094.260334859732
 20
887.9450184306646
 30
0.0
 11
1083.260334859732
 21
887.9450184306646
 31
0.0
  0
LINE
  5
90
330
1F
100
AcDbEntity
  8
0
  6
Continuous
 62
     2
100
AcDbLine
 10
1094.260334859732
 20
892.9450184306645
 30
0.0
 11
1094.260334859732
 21
887.9450184306646
 31
0.0
  0
LINE
  5
91
330
1F
100
AcDbEntity
  8
0
  6
Continuous
 62
     7
100
AcDbLine
 10
1142.972629026376
 20
888.9450184306645
 30
0.0
 11
1135.726499340761
 21
888.9450184306646
 31
0.0
  0
LINE
  5
92
330
1F
100
AcDbEntity
  8
0
  6
Continuous
 62
     7
100
AcDbLine
 10
1094.260334859732
 20
892.9450184306645
 30
0.0
 11
1132.627551164605
 21
892.9450184306645
 31
0.0
  0
LINE
  5
93
330
1F
100
AcDbEntity
  8
0
  6
Continuous
 62
     7
100
AcDbLine
 10
1073.110334859732
 20
892.9450184306645
 30
0.0
 11
1077.260334859732
 21
892.9450184306645
 31
0.0
  0
LINE
  5
94
330
1F
100
AcDbEntity
  8
0
  6
Continuous
 62
     7
100
AcDbLine
 10
1077.260334859732
 20
892.9450184306645
 30
0.0
 11
1083.260334859732
 21
892.9450184306645
 31
0.0
  0
LINE
  5
95
330
1F
100
AcDbEntity
  8
0
  6
Continuous
 62
     7
100
AcDbLine
 10
1083.260334859732
 20
892.9450184306645
 30
0.0
 11
1094.260334859732
 21
892.9450184306645
 31
0.0
  0
LINE
  5
96
330
1F
100
AcDbEntity
  8
0
  6
Continuous
 62
     7
100
AcDbLine
 10
1134.121843211743
 20
891.575752044786
 30
0.0
 11
1134.232207293623
 21
890.314284816543
 31
0.0
  0
LINE
  5
97
330
1F
100
AcDbEntity
  8
0
  6
Continuous
 62
     7
100
AcDbLine
 10
1144.466921073514
 20
890.3142848165431
 30
0.0
 11
1144.577285155395
 21
891.575752044786
 31
0.0
  0
LINE
  5
98
330
1F
100
AcDbEntity
  8
0
  6
Continuous
 62
     2
100
AcDbLine
 10
1205.592963731473
 20
892.9450184306645
 30
0.0
 11
1205.592963731473
 21
887.9450184306646
 31
0.0
  0
LINE
  5
99
330
1F
100
AcDbEntity
  8
0
  6
Continuous
 62
     7
100
AcDbLine
 10
1146.071577202532
 20
892.9450184306645
 30
0.0
 11
1205.592963731473
 21
892.9450184306645
 31
0.0
  0
LINE
  5
9A
330
1F
100
AcDbEntity
  8
0
  6
Continuous
 62
     7
100
AcDbLine
 10
1213.592963731473
 20
892.9450184306645
 30
0.0
 11
1205.592963731473
 21
892.9450184306645
 31
0.0
  0
LINE
  5
9B
330
1F
100
AcDbEntity
  8
0
  6
Continuous
 62
     7
100
AcDbLine
 10
1213.592963731473
 20
892.9450184306645
 30
0.0
 11
1213.592963731473
 21
887.9450184306646
 31
0.0
  0
LINE
  5
9C
330
1F
100
AcDbEntity
  8
0
  6
Continuous
 62
     2
100
AcDbLine
 10
1213.592963731473
 20
887.9450184306646
 30
0.0
 11
1205.592963731473
 21
887.9450184306646
 31
0.0
  0
LINE
  5
9D
330
1F
100
AcDbEntity
  8
0
  6
Continuous
 62
     7
100
AcDbLine
 10
1212.592963731473
 20
886.9450184306645
 30
0.0
 11
1205.592963731473
 21
886.9450184306645
 31
0.0
  0
LINE
  5
9E
330
1F
100
AcDbEntity
  8
0
  6
Continuous
 62
     7
100
AcDbLine
 10
1187.569986369953
 20
877.4450184306646
 30
0.0
 11
1184.542963731995
 21
877.4450184306646
 31
0.0
  0
LINE
  5
9F
330
1F
100
AcDbEntity
  8
0
  6
Continuous
 62
     7
100
AcDbLine
 10
1192.142963731996
 20
877.4450184306646
 30
0.0
 11
1187.569986369953
 21
877.4450184306646
 31
0.0
  0
LINE
  5
A0
330
1F
100
AcDbEntity
  8
0
  6
Continuous
 62
     2
100
AcDbLine
 10
1193.142963731996
 20
878.4450184306646
 30
0.0
 11
1184.542963731995
 21
878.4450184306646
 31
0.0
  0
LINE
  5
A1
330
1F
100
AcDbEntity
  8
0
  6
Continuous
 62
     7
100
AcDbLine
 10
1193.142963731996
 20
886.9450184306646
 30
0.0
 11
1184.542963731995
 21
886.9450184306646
 31
0.0
  0
LINE
  5
A2
330
1F
100
AcDbEntity
  8
0
  6
Continuous
 62
     2
100
AcDbLine
 10
1205.592963731473
 20
886.9450184306645
 30
0.0
 11
1205.592963731473
 21
887.9450184306646
 31
0.0
  0
LINE
  5
A3
330
1F
100
AcDbEntity
  8
0
  6
Continuous
 62
     7
100
AcDbLine
 10
1205.592963731473
 20
886.9450184306645
 30
0.0
 11
1193.142963731996
 21
886.9450184306646
 31
0.0
  0
LINE
  5
A4
330
1F
100
AcDbEntity
  8
0
  6
Continuous
 62
     2
100
AcDbLine
 10
1184.542963731995
 20
886.9450184306646
 30
0.0
 11
1184.542963731995
 21
878.4450184306646
 31
0.0
  0
LINE
  5
A5
330
1F
100
AcDbEntity
  8
0
  6
Continuous
 62
     7
100
AcDbLine
 10
1193.142963731996
 20
886.9450184306646
 30
0.0
 11
1193.142963731996
 21
878.4450184306646
 31
0.0
  0
LINE
  5
A6
330
1F
100
AcDbEntity
  8
0
  6
Continuous
 62
     7
100
AcDbLine
 10
1094.674650019162
 20
858.9450211719193
 30
0.0
 11
1184.026883275132
 21
858.9450183928494
 31
0.0
  0
LINE
  5
A7
330
1F
100
AcDbEntity
  8
0
  6
Continuous
 62
     7
100
AcDbLine
 10
1187.025058389786
 20
861.8403227696418
 30
0.0
 11
1187.057596643794
 21
862.772096452787
 31
0.0
  0
LINE
  5
A8
330
1F
100
AcDbEntity
  8
0
  6
Continuous
 62
     7
100
AcDbLine
 10
1187.057596643794
 20
862.772096452787
 30
0.0
 11
1187.569986369953
 21
877.4450184306646
 31
0.0
  0
LINE
  5
A9
330
1F
100
AcDbEntity
  8
0
  6
Continuous
 62
     2
100
AcDbLine
 10
1184.542963731995
 20
877.4450184306646
 30
0.0
 11
1184.542963731995
 21
878.4450184306646
 31
0.0
  0
LINE
  5
AA
330
1F
100
AcDbEntity
  8
0
  6
Continuous
 62
     2
100
AcDbLine
 10
1094.15856373199
 20
878.4450184306647
 30
0.0
 11
1184.542963731995
 21
878.4450184306646
 31
0.0
  0
LINE
  5
AB
330
1F
100
AcDbEntity
  8
0
  6
Continuous
 62
     2
100
AcDbLine
 10
1094.15856373199
 20
878.4450184306647
 30
0.0
 11
1085.55856373199
 21
878.4450184306647
 31
0.0
  0
LINE
  5
AC
330
1F
100
AcDbEntity
  8
0
  6
Continuous
 62
     7
100
AcDbLine
 10
1097.627581469656
 20
877.4450184306647
 30
0.0
 11
1181.073945994329
 21
877.4450184306646
 31
0.0
  0
LINE
  5
AD
330
1F
100
AcDbEntity
  8
0
  6
Continuous
 62
     7
100
AcDbLine
 10
1181.073945994329
 20
877.4450184306646
 30
0.0
 11
1184.542963731995
 21
877.4450184306646
 31
0.0
  0
LINE
  5
AE
330
1F
100
AcDbEntity
  8
0
  6
Continuous
 62
     2
100
AcDbLine
 10
1180.583458794966
 20
863.3993027576745
 30
0.0
 11
1181.073945994329
 21
877.4450184306646
 31
0.0
  0
LINE
  5
AF
330
1F
100
AcDbEntity
  8
0
  6
Continuous
 62
     2
100
AcDbLine
 10
1077.260334859732
 20
887.9450184306646
 30
0.0
 11
1083.260334859732
 21
887.9450184306646
 31
0.0
  0
LINE
  5
B0
330
1F
100
AcDbEntity
  8
0
  6
Continuous
 62
     2
100
AcDbLine
 10
1077.260334859732
 20
887.9450184306646
 30
0.0
 11
1077.260334859732
 21
886.9450184306646
 31
0.0
  0
LINE
  5
B1
330
1F
100
AcDbEntity
  8
0
  6
Continuous
 62
     7
100
AcDbLine
 10
1073.110334859732
 20
886.9450184306646
 30
0.0
 11
1077.260334859732
 21
886.9450184306646
 31
0.0
  0
LINE
  5
B2
330
1F
100
AcDbEntity
  8
0
  6
Continuous
 62
     2
100
AcDbLine
 10
1073.110334859732
 20
886.9450184306646
 30
0.0
 11
1073.110334859732
 21
887.9450184306646
 31
0.0
  0
LINE
  5
B3
330
1F
100
AcDbEntity
  8
0
  6
Continuous
 62
     2
100
AcDbLine
 10
1094.260334859732
 20
886.9450184306646
 30
0.0
 11
1094.260334859732
 21
887.9450184306646
 31
0.0
  0
LINE
  5
B4
330
1F
100
AcDbEntity
  8
0
  6
Continuous
 62
     7
100
AcDbLine
 10
1085.55856373199
 20
886.9450184306646
 30
0.0
 11
1084.260334859732
 21
886.9450184306646
 31
0.0
  0
LINE
  5
B5
330
1F
100
AcDbEntity
  8
0
  6
Continuous
 62
     7
100
AcDbLine
 10
1085.55856373199
 20
886.9450184306646
 30
0.0
 11
1085.55856373199
 21
878.4450184306647
 31
0.0
  0
LINE
  5
B6
330
1F
100
AcDbEntity
  8
0
  6
Continuous
 62
     7
100
AcDbLine
 10
1091.131541094032
 20
877.4450184306647
 30
0.0
 11
1086.55856373199
 21
877.4450184306647
 31
0.0
  0
LINE
  5
B7
330
1F
100
AcDbEntity
  8
0
  6
Continuous
 62
     7
100
AcDbLine
 10
1094.260334859732
 20
886.9450184306646
 30
0.0
 11
1094.15856373199
 21
886.9450184306646
 31
0.0
  0
LINE
  5
B8
330
1F
100
AcDbEntity
  8
0
  6
Continuous
 62
     7
100
AcDbLine
 10
1094.15856373199
 20
877.4450184306647
 30
0.0
 11
1091.131541094032
 21
877.4450184306647
 31
0.0
  0
LINE
  5
B9
330
1F
100
AcDbEntity
  8
0
  6
Continuous
 62
     7
100
AcDbLine
 10
1091.643930753444
 20
862.772098364194
 30
0.0
 11
1091.676468917275
 21
861.8403272633797
 31
0.0
  0
LINE
  5
BA
330
1F
100
AcDbEntity
  8
0
  6
Continuous
 62
     2
100
AcDbLine
 10
1094.15856373199
 20
886.9450184306646
 30
0.0
 11
1094.15856373199
 21
878.4450184306647
 31
0.0
  0
LINE
  5
BB
330
1F
100
AcDbEntity
  8
0
  6
Continuous
 62
     2
100
AcDbLine
 10
1094.15856373199
 20
877.4450184306647
 30
0.0
 11
1094.15856373199
 21
878.4450184306647
 31
0.0
  0
LINE
  5
BC
330
1F
100
AcDbEntity
  8
0
  6
Continuous
 62
     7
100
AcDbLine
 10
1094.15856373199
 20
877.4450184306647
 30
0.0
 11
1097.627581469656
 21
877.4450184306647
 31
0.0
  0
LINE
  5
BD
330
1F
100
AcDbEntity
  8
0
  6
Continuous
 62
     2
100
AcDbLine
 10
1098.118068875904
 20
863.3992968332788
 30
0.0
 11
1097.627581469656
 21
877.4450184306647
 31
0.0
  0
LINE
  5
BE
330
1F
100
AcDbEntity
  8
0
  6
Continuous
 62
     7
100
AcDbLine
 10
1091.643930753444
 20
862.772098364194
 30
0.0
 11
1091.131541094032
 21
877.4450184306647
 31
0.0
  0
LINE
  5
BF
330
1F
100
AcDbEntity
  8
0
  6
Continuous
 62
     7
100
AcDbLine
 10
1094.15856373199
 20
886.9450184306646
 30
0.0
 11
1085.55856373199
 21
886.9450184306646
 31
0.0
  0
LINE
  5
C0
330
1F
100
AcDbEntity
  8
0
  6
Continuous
 62
     7
100
AcDbLine
 10
1077.260334859732
 20
886.9450184306646
 30
0.0
 11
1084.260334859732
 21
886.9450184306646
 31
0.0
  0
LINE
  5
C1
330
1F
100
AcDbEntity
  8
0
  6
Continuous
 62
     7
100
AcDbLine
 10
1205.574963731473
 20
1043.984218393908
 30
0.0
 11
1094.242334859731
 21
1043.984218393908
 31
0.0
  0
LINE
  5
C2
330
1F
100
AcDbEntity
  8
0
  6
Continuous
 62
     2
100
AcDbLine
 10
1205.574963731473
 20
1042.984218393908
 30
0.0
 11
1205.574963731473
 21
1043.984218393908
 31
0.0
  0
LINE
  5
C3
330
1F
100
AcDbEntity
  8
0
  6
Continuous
 62
     2
100
AcDbLine
 10
1094.242334859731
 20
1042.984218393908
 30
0.0
 11
1094.242334859731
 21
1043.984218393908
 31
0.0
  0
LINE
  5
C4
330
1F
100
AcDbEntity
  8
0
  6
Continuous
 62
     2
100
AcDbLine
 10
1205.574963731473
 20
1042.984218393908
 30
0.0
 11
1138.861977425278
 21
1042.984218393908
 31
0.0
  0
LINE
  5
C5
330
1F
100
AcDbEntity
  8
0
  6
Continuous
 62
     2
100
AcDbLine
 10
1138.861977425278
 20
1042.984218393908
 30
0.0
 11
1094.242334859731
 21
1042.984218393908
 31
0.0
  0
LINE
  5
C6
330
1F
100
AcDbEntity
  8
0
  6
Continuous
 62
     2
100
AcDbLine
 10
1086.54056373199
 20
1032.785989520138
 30
0.0
 11
1085.54056373199
 21
1032.785989520138
 31
0.0
  0
LINE
  5
C7
330
1F
100
AcDbEntity
  8
0
  6
Continuous
 62
     2
100
AcDbLine
 10
1094.14056373199
 20
1040.385989520138
 30
0.0
 11
1094.14056373199
 21
1041.385989520138
 31
0.0
  0
LINE
  5
C8
330
1F
100
AcDbEntity
  8
0
  6
Continuous
 62
     7
100
AcDbLine
 10
1181.055945994329
 20
1036.413012158094
 30
0.0
 11
1097.609581469656
 21
1036.413012158094
 31
0.0
  0
LINE
  5
C9
330
1F
100
AcDbEntity
  8
0
  6
Continuous
 62
     2
100
AcDbLine
 10
1180.565458794966
 20
1035.922524958731
 30
0.0
 11
1181.055945994329
 21
1036.413012158094
 31
0.0
  0
LINE
  5
CA
330
1F
100
AcDbEntity
  8
0
  6
Continuous
 62
     2
100
AcDbLine
 10
1098.100068875903
 20
1035.922524751847
 30
0.0
 11
1097.609581469656
 21
1036.413012158094
 31
0.0
  0
LINE
  5
CB
330
1F
100
AcDbEntity
  8
0
  6
Continuous
 62
     2
100
AcDbLine
 10
1212.574963731473
 20
1035.984218393908
 30
0.0
 11
1213.574963731473
 21
1035.984218393908
 31
0.0
  0
LINE
  5
CC
330
1F
100
AcDbEntity
  8
0
  6
Continuous
 62
     7
100
AcDbLine
 10
1094.14056373199
 20
1041.385989520138
 30
0.0
 11
1184.524963731994
 21
1041.385989520138
 31
0.0
  0
LINE
  5
CD
330
1F
100
AcDbEntity
  8
0
  6
Continuous
 62
     2
100
AcDbLine
 10
1094.14056373199
 20
1040.385989520138
 30
0.0
 11
1184.524963731994
 21
1040.385989520138
 31
0.0
  0
LINE
  5
CE
330
1F
100
AcDbEntity
  8
0
  6
Continuous
 62
     2
100
AcDbLine
 10
1184.524963731994
 20
1040.385989520138
 30
0.0
 11
1184.524963731994
 21
1041.385989520138
 31
0.0
  0
LINE
  5
CF
330
1F
100
AcDbEntity
  8
0
  6
Continuous
 62
     7
100
AcDbLine
 10
1201.424963731995
 20
1021.984218393908
 30
0.0
 11
1205.574963731473
 21
1021.984218393908
 31
0.0
  0
LINE
  5
D0
330
1F
100
AcDbEntity
  8
0
  6
Continuous
 62
     7
100
AcDbLine
 10
1213.574963731473
 20
1035.984218393908
 30
0.0
 11
1213.574963731473
 21
1029.984218393908
 31
0.0
  0
LINE
  5
D1
330
1F
100
AcDbEntity
  8
0
  6
Continuous
 62
     2
100
AcDbLine
 10
1201.424963731995
 20
1022.984218393908
 30
0.0
 11
1205.574963731473
 21
1022.984218393908
 31
0.0
  0
LINE
  5
D2
330
1F
100
AcDbEntity
  8
0
  6
Continuous
 62
     2
100
AcDbLine
 10
1205.574963731473
 20
1022.984218393908
 30
0.0
 11
1205.574963731473
 21
1021.984218393908
 31
0.0
  0
LINE
  5
D3
330
1F
100
AcDbEntity
  8
0
  6
Continuous
 62
     2
100
AcDbLine
 10
1083.242334859731
 20
1011.785989520136
 30
0.0
 11
1084.242334859731
 21
1011.785989520136
 31
0.0
  0
LINE
  5
D4
330
1F
100
AcDbEntity
  8
0
  6
Continuous
 62
     7
100
AcDbLine
 10
1083.242334859731
 20
1011.785989520136
 30
0.0
 11
1083.242334859731
 21
1032.984218393908
 31
0.0
  0
LINE
  5
D5
330
1F
100
AcDbEntity
  8
0
  6
Continuous
 62
     2
100
AcDbLine
 10
1084.242334859731
 20
1011.785989520136
 30
0.0
 11
1084.242334859731
 21
1032.984218393908
 31
0.0
  0
LINE
  5
D6
330
1F
100
AcDbEntity
  8
0
  6
Continuous
 62
     2
100
AcDbLine
 10
1195.424963731995
 20
1015.984218393908
 30
0.0
 11
1194.424963731995
 21
1015.984218393908
 31
0.0
  0
LINE
  5
D7
330
1F
100
AcDbEntity
  8
0
  6
Continuous
 62
     2
100
AcDbLine
 10
1066.092334859731
 20
991.7859895201359
 30
0.0
 11
1065.092334859731
 21
991.7859895201359
 31
0.0
  0
LINE
  5
D8
330
1F
100
AcDbEntity
  8
0
  6
Continuous
 62
     7
100
AcDbLine
 10
1065.092334859731
 20
991.7859895201359
 30
0.0
 11
1065.092334859731
 21
997.7859895201359
 31
0.0
  0
LINE
  5
D9
330
1F
100
AcDbEntity
  8
0
  6
Continuous
 62
     2
100
AcDbLine
 10
1066.092334859731
 20
997.7859895201359
 30
0.0
 11
1065.092334859731
 21
997.7859895201359
 31
0.0
  0
LINE
  5
DA
330
1F
100
AcDbEntity
  8
0
  6
Continuous
 62
     2
100
AcDbLine
 10
1077.242334859731
 20
1005.785989520136
 30
0.0
 11
1077.242334859731
 21
1004.785989520136
 31
0.0
  0
LINE
  5
DB
330
1F
100
AcDbEntity
  8
0
  6
Continuous
 62
     7
100
AcDbLine
 10
1073.092334859731
 20
1005.785989520136
 30
0.0
 11
1077.242334859731
 21
1005.785989520136
 31
0.0
  0
LINE
  5
DC
330
1F
100
AcDbEntity
  8
0
  6
Continuous
 62
     2
100
AcDbLine
 10
1073.092334859731
 20
1004.785989520136
 30
0.0
 11
1073.092334859731
 21
1005.785989520136
 31
0.0
  0
LINE
  5
DD
330
1F
100
AcDbEntity
  8
0
  6
Continuous
 62
     2
100
AcDbLine
 10
1066.092334859731
 20
991.7859895201359
 30
0.0
 11
1066.092334859731
 21
997.7859895201359
 31
0.0
  0
LINE
  5
DE
330
1F
100
AcDbEntity
  8
0
  6
Continuous
 62
     2
100
AcDbLine
 10
1073.092334859731
 20
1004.785989520136
 30
0.0
 11
1077.242334859731
 21
1004.785989520136
 31
0.0
  0
LINE
  5
DF
330
1F
100
AcDbEntity
  8
0
  6
Continuous
 62
     2
100
AcDbLine
 10
1086.54056373199
 20
994.9859895203698
 30
0.0
 11
1085.54056373199
 21
994.9859895203698
 31
0.0
  0
LINE
  5
E0
330
1F
100
AcDbEntity
  8
0
  6
Continuous
 62
     7
100
AcDbLine
 10
1138.861977425278
 20
983.7859895201359
 30
0.0
 11
1184.424963731995
 21
983.7859895201359
 31
0.0
  0
LINE
  5
E1
330
1F
100
AcDbEntity
  8
0
  6
Continuous
 62
     7
100
AcDbLine
 10
1073.092334859731
 20
983.7859895201359
 30
0.0
 11
1125.417951387351
 21
983.7859895201359
 31
0.0
  0
LINE
  5
E2
330
1F
100
AcDbEntity
  8
0
  6
Continuous
 62
     2
100
AcDbLine
 10
1073.092334859731
 20
984.7859895201359
 30
0.0
 11
1073.092334859731
 21
983.7859895201359
 31
0.0
  0
LINE
  5
E3
330
1F
100
AcDbEntity
  8
0
  6
Continuous
 62
     2
100
AcDbLine
 10
1073.092334859731
 20
984.7859895201359
 30
0.0
 11
1125.417951387351
 21
984.7859895201359
 31
0.0
  0
LINE
  5
E4
330
1F
100
AcDbEntity
  8
0
  6
Continuous
 62
     2
100
AcDbLine
 10
1138.861977425278
 20
984.7859895201359
 30
0.0
 11
1184.424963731995
 21
984.7859895201359
 31
0.0
  0
LINE
  5
E5
330
1F
100
AcDbEntity
  8
0
  6
Continuous
 62
     7
100
AcDbLine
 10
1094.14056373199
 20
986.3859895203698
 30
0.0
 11
1184.524963731995
 21
986.3859895203697
 31
0.0
  0
LINE
  5
E6
330
1F
100
AcDbEntity
  8
0
  6
Continuous
 62
     2
100
AcDbLine
 10
1184.524963731994
 20
987.3859895203695
 30
0.0
 11
1184.524963731995
 21
986.3859895203697
 31
0.0
  0
LINE
  5
E7
330
1F
100
AcDbEntity
  8
0
  6
Continuous
 62
     2
100
AcDbLine
 10
1094.14056373199
 20
987.3859895203695
 30
0.0
 11
1094.14056373199
 21
986.3859895203698
 31
0.0
  0
LINE
  5
E8
330
1F
100
AcDbEntity
  8
0
  6
Continuous
 62
     2
100
AcDbLine
 10
1097.609581469656
 20
991.3590278366084
 30
0.0
 11
1098.100069435845
 21
991.849515802798
 31
0.0
  0
LINE
  5
E9
330
1F
100
AcDbEntity
  8
0
  6
Continuous
 62
     2
100
AcDbLine
 10
1181.055945994329
 20
991.3590278366084
 30
0.0
 11
1180.565458077668
 21
991.8495157532691
 31
0.0
  0
LINE
  5
EA
330
1F
100
AcDbEntity
  8
0
  6
Continuous
 62
     7
100
AcDbLine
 10
1097.609581469656
 20
991.3590278366084
 30
0.0
 11
1181.055945994329
 21
991.3590278366084
 31
0.0
  0
LINE
  5
EB
330
1F
100
AcDbEntity
  8
0
  6
Continuous
 62
     2
100
AcDbLine
 10
1194.424963731995
 20
994.7859895201359
 30
0.0
 11
1195.424963731995
 21
994.7859895201359
 31
0.0
  0
LINE
  5
EC
330
1F
100
AcDbEntity
  8
0
  6
Continuous
 62
     2
100
AcDbLine
 10
1094.14056373199
 20
987.3859895203695
 30
0.0
 11
1184.524963731994
 21
987.3859895203695
 31
0.0
  0
LINE
  5
ED
330
1F
100
AcDbEntity
  8
0
  6
Continuous
 62
     2
100
AcDbLine
 10
1084.242334859731
 20
1032.984218393908
 30
0.0
 11
1083.242334859731
 21
1032.984218393908
 31
0.0
  0
LINE
  5
EE
330
1F
100
AcDbEntity
  8
0
  6
Continuous
 62
     2
100
AcDbLine
 10
1212.574963731473
 20
1035.984218393908
 30
0.0
 11
1212.574963731473
 21
1029.984218393908
 31
0.0
  0
LINE
  5
EF
330
1F
100
AcDbEntity
  8
0
  6
Continuous
 62
     2
100
AcDbLine
 10
1091.625930753444
 20
1029.404582123058
 30
0.0
 11
1091.113541094032
 21
1029.91697178247
 31
0.0
  0
LINE
  5
F0
330
1F
100
AcDbEntity
  8
0
  6
Continuous
 62
     2
100
AcDbLine
 10
1192.124963731995
 20
1032.785989520138
 30
0.0
 11
1193.124963731995
 21
1032.785989520138
 31
0.0
  0
LINE
  5
F1
330
1F
100
AcDbEntity
  8
0
  6
Continuous
 62
     2
100
AcDbLine
 10
1212.574963731473
 20
1029.984218393908
 30
0.0
 11
1213.574963731473
 21
1029.984218393908
 31
0.0
  0
LINE
  5
F2
330
1F
100
AcDbEntity
  8
0
  6
Continuous
 62
     2
100
AcDbLine
 10
1187.039596643793
 20
1029.40458205631
 30
0.0
 11
1187.551986369953
 21
1029.91697178247
 31
0.0
  0
LINE
  5
F3
330
1F
100
AcDbEntity
  8
0
  6
Continuous
 62
     2
100
AcDbLine
 10
1192.124963731995
 20
994.9859895203699
 30
0.0
 11
1192.124963731995
 21
1032.785989520138
 31
0.0
  0
LINE
  5
F4
330
1F
100
AcDbEntity
  8
0
  6
Continuous
 62
     7
100
AcDbLine
 10
1193.124963731995
 20
994.9859895203699
 30
0.0
 11
1193.124963731995
 21
1032.785989520138
 31
0.0
  0
LINE
  5
F5
330
1F
100
AcDbEntity
  8
0
  6
Continuous
 62
     2
100
AcDbLine
 10
1201.424963731995
 20
1021.984218393908
 30
0.0
 11
1201.424963731995
 21
1022.984218393908
 31
0.0
  0
LINE
  5
F6
330
1F
100
AcDbEntity
  8
0
  6
Continuous
 62
     7
100
AcDbLine
 10
1195.424963731995
 20
1015.984218393908
 30
0.0
 11
1195.424963731995
 21
994.7859895201359
 31
0.0
  0
LINE
  5
F7
330
1F
100
AcDbEntity
  8
0
  6
Continuous
 62
     2
100
AcDbLine
 10
1192.124963731995
 20
994.9859895203699
 30
0.0
 11
1193.124963731995
 21
994.9859895203699
 31
0.0
  0
LINE
  5
F8
330
1F
100
AcDbEntity
  8
0
  6
Continuous
 62
     2
100
AcDbLine
 10
1194.424963731995
 20
1015.984218393908
 30
0.0
 11
1194.424963731995
 21
994.7859895201359
 31
0.0
  0
LINE
  5
F9
330
1F
100
AcDbEntity
  8
0
  6
Continuous
 62
     7
100
AcDbLine
 10
1085.54056373199
 20
1032.785989520138
 30
0.0
 11
1085.54056373199
 21
994.9859895203698
 31
0.0
  0
LINE
  5
FA
330
1F
100
AcDbEntity
  8
0
  6
DASHED
 62
     3
100
AcDbLine
 10
1091.10462602138
 20
1018.885989520107
 30
0.0
 11
1091.10462602138
 21
1008.885989520108
 31
0.0
  0
LINE
  5
FB
330
1F
100
AcDbEntity
  8
0
  6
Continuous
 62
     2
100
AcDbLine
 10
1086.54056373199
 20
1032.785989520138
 30
0.0
 11
1086.54056373199
 21
994.9859895203698
 31
0.0
  0
LINE
  5
FC
330
1F
100
AcDbEntity
  8
0
  6
Continuous
 62
     2
100
AcDbLine
 10
1091.113541094032
 20
997.8550682122325
 30
0.0
 11
1091.625931386344
 21
998.3674585045449
 31
0.0
  0
LINE
  5
FD
330
1F
100
AcDbEntity
  8
0
  6
Continuous
 62
     7
100
AcDbLine
 10
1091.113541094032
 20
1029.91697178247
 30
0.0
 11
1091.113541094032
 21
997.8550682122325
 31
0.0
  0
LINE
  5
FE
330
1F
100
AcDbEntity
  8
0
  6
Continuous
 62
     2
100
AcDbLine
 10
1184.424963731995
 20
984.7859895201359
 30
0.0
 11
1184.424963731995
 21
983.7859895201359
 31
0.0
  0
LINE
  5
FF
330
1F
100
AcDbEntity
  8
0
  6
Continuous
 62
     7
100
AcDbLine
 10
1187.551986369953
 20
997.8550682122325
 30
0.0
 11
1187.551986369953
 21
1029.91697178247
 31
0.0
  0
LINE
  5
100
330
1F
100
AcDbEntity
  8
0
  6
Continuous
 62
     2
100
AcDbLine
 10
1187.551986369953
 20
997.8550682122325
 30
0.0
 11
1187.039596502003
 21
998.3674580801821
 31
0.0
  0
LINE
  5
101
330
1F
100
AcDbEntity
  8
0
  6
Continuous
 62
     2
100
AcDbLine
 10
1329.599298947226
 20
991.785989520138
 30
0.0
 11
1329.599298947226
 21
983.7859895201378
 31
0.0
  0
LINE
  5
102
330
1F
100
AcDbEntity
  8
0
  6
Continuous
 62
     7
100
AcDbLine
 10
1324.599298947226
 20
983.785989520138
 30
0.0
 11
1329.599298947226
 21
983.7859895201378
 31
0.0
  0
LINE
  5
103
330
1F
100
AcDbEntity
  8
0
  6
Continuous
 62
     7
100
AcDbLine
 10
1324.599298947226
 20
997.7859895201378
 30
0.0
 11
1324.599298947226
 21
991.785989520138
 31
0.0
  0
LINE
  5
104
330
1F
100
AcDbEntity
  8
0
  6
Continuous
 62
     2
100
AcDbLine
 10
1324.599298947226
 20
997.7859895201378
 30
0.0
 11
1329.599298947226
 21
997.7859895201378
 31
0.0
  0
LINE
  5
105
330
1F
100
AcDbEntity
  8
0
  6
Continuous
 62
     2
100
AcDbLine
 10
1329.599298947226
 20
1005.785989520138
 30
0.0
 11
1329.599298947226
 21
997.7859895201378
 31
0.0
  0
LINE
  5
106
330
1F
100
AcDbEntity
  8
0
  6
Continuous
 62
     7
100
AcDbLine
 10
1324.599298947226
 20
1005.785989520138
 30
0.0
 11
1329.599298947226
 21
1005.785989520138
 31
0.0
  0
LINE
  5
107
330
1F
100
AcDbEntity
  8
0
  6
Continuous
 62
     2
100
AcDbLine
 10
1329.599298947226
 20
1005.785989520138
 30
0.0
 11
1329.599298947226
 21
1011.785989520138
 31
0.0
  0
LINE
  5
108
330
1F
100
AcDbEntity
  8
0
  6
Continuous
 62
     7
100
AcDbLine
 10
1324.599298947226
 20
1032.98421839391
 30
0.0
 11
1324.599298947226
 21
1011.785989520138
 31
0.0
  0
LINE
  5
109
330
1F
100
AcDbEntity
  8
0
  6
Continuous
 62
     2
100
AcDbLine
 10
1324.599298947226
 20
991.785989520138
 30
0.0
 11
1329.599298947226
 21
991.785989520138
 31
0.0
  0
LINE
  5
10A
330
1F
100
AcDbEntity
  8
0
  6
Continuous
 62
     2
100
AcDbLine
 10
1339.099298947225
 20
1032.78598952014
 30
0.0
 11
1339.099298947225
 21
994.985989520372
 31
0.0
  0
LINE
  5
10B
330
1F
100
AcDbEntity
  8
0
  6
Continuous
 62
     7
100
AcDbLine
 10
1340.099298947225
 20
1032.78598952014
 30
0.0
 11
1340.099298947225
 21
1029.916971782472
 31
0.0
  0
LINE
  5
10C
330
1F
100
AcDbEntity
  8
0
  6
Continuous
 62
     2
100
AcDbLine
 10
1340.099298947225
 20
1032.78598952014
 30
0.0
 11
1339.099298947225
 21
1032.78598952014
 31
0.0
  0
LINE
  5
10D
330
1F
100
AcDbEntity
  8
0
  6
Continuous
 62
     2
100
AcDbLine
 10
1339.099298947225
 20
1041.38598952014
 30
0.0
 11
1339.099298947225
 21
1032.78598952014
 31
0.0
  0
LINE
  5
10E
330
1F
100
AcDbEntity
  8
0
  6
Continuous
 62
     2
100
AcDbLine
 10
1329.599298947226
 20
1011.785989520138
 30
0.0
 11
1329.599298947226
 21
1032.98421839391
 31
0.0
  0
LINE
  5
10F
330
1F
100
AcDbEntity
  8
0
  6
Continuous
 62
     2
100
AcDbLine
 10
1354.772219013696
 20
1029.40458212306
 30
0.0
 11
1340.099298947225
 21
1029.916971782472
 31
0.0
  0
LINE
  5
110
330
1F
100
AcDbEntity
  8
0
  6
Continuous
 62
     7
100
AcDbLine
 10
1324.599298947226
 20
983.785989520138
 30
0.0
 11
1324.599298947226
 21
991.785989520138
 31
0.0
  0
LINE
  5
111
330
1F
100
AcDbEntity
  8
0
  6
Continuous
 62
     2
100
AcDbLine
 10
1330.599298947226
 20
1032.78598952014
 30
0.0
 11
1339.099298947225
 21
1032.78598952014
 31
0.0
  0
LINE
  5
112
330
1F
100
AcDbEntity
  8
0
  6
Continuous
 62
     7
100
AcDbLine
 10
1340.099298947225
 20
1029.916971782472
 30
0.0
 11
1340.099298947225
 21
997.8550682122345
 31
0.0
  0
LINE
  5
113
330
1F
100
AcDbEntity
  8
0
  6
Continuous
 62
     7
100
AcDbLine
 10
1324.599298947226
 20
1005.785989520138
 30
0.0
 11
1324.599298947226
 21
1011.785989520138
 31
0.0
  0
LINE
  5
114
330
1F
100
AcDbEntity
  8
0
  6
Continuous
 62
     7
100
AcDbLine
 10
1324.599298947226
 20
1005.785989520138
 30
0.0
 11
1324.599298947226
 21
997.7859895201378
 31
0.0
  0
LINE
  5
115
330
1F
100
AcDbEntity
  8
0
  6
Continuous
 62
     7
100
AcDbLine
 10
1330.599298947226
 20
1004.785989520138
 30
0.0
 11
1330.599298947226
 21
997.7859895201378
 31
0.0
  0
LINE
  5
116
330
1F
100
AcDbEntity
  8
0
  6
Continuous
 62
     7
100
AcDbLine
 10
1330.599298947226
 20
1004.785989520138
 30
0.0
 11
1330.599298947226
 21
1011.785989520138
 31
0.0
  0
LINE
  5
117
330
1F
100
AcDbEntity
  8
0
  6
Continuous
 62
     7
100
AcDbLine
 10
1330.599298947226
 20
1011.785989520138
 30
0.0
 11
1330.599298947226
 21
1032.78598952014
 31
0.0
  0
LINE
  5
118
330
1F
100
AcDbEntity
  8
0
  6
Continuous
 62
     7
100
AcDbLine
 10
1340.099298947225
 20
1040.38598952014
 30
0.0
 11
1340.099298947225
 21
1036.413012158096
 31
0.0
  0
LINE
  5
119
330
1F
100
AcDbEntity
  8
0
  6
Continuous
 62
     7
100
AcDbLine
 10
1330.599298947226
 20
1041.38598952014
 30
0.0
 11
1339.099298947225
 21
1041.38598952014
 31
0.0
  0
LINE
  5
11A
330
1F
100
AcDbEntity
  8
0
  6
Continuous
 62
     7
100
AcDbLine
 10
1354.145020544612
 20
1035.922524751848
 30
0.0
 11
1340.099298947225
 21
1036.413012158096
 31
0.0
  0
LINE
  5
11B
330
1F
100
AcDbEntity
  8
0
  6
Continuous
 62
     2
100
AcDbLine
 10
1329.599298947226
 20
1011.785989520138
 30
0.0
 11
1330.599298947226
 21
1011.785989520138
 31
0.0
  0
LINE
  5
11C
330
1F
100
AcDbEntity
  8
0
  6
Continuous
 62
     2
100
AcDbLine
 10
1324.599298947226
 20
1011.785989520138
 30
0.0
 11
1329.599298947226
 21
1011.785989520138
 31
0.0
  0
LINE
  5
11D
330
1F
100
AcDbEntity
  8
0
  6
Continuous
 62
     7
100
AcDbLine
 10
1358.599296205971
 20
1010.485989520193
 30
0.0
 11
1358.599296205971
 21
1017.285989520084
 31
0.0
  0
LINE
  5
11E
330
1F
100
AcDbEntity
  8
0
  6
Continuous
 62
     7
100
AcDbLine
 10
1340.099298947225
 20
1036.413012158096
 30
0.0
 11
1340.099298947225
 21
1032.78598952014
 31
0.0
  0
LINE
  5
11F
330
1F
100
AcDbEntity
  8
0
  6
Continuous
 62
     7
100
AcDbLine
 10
1324.599298947226
 20
1032.98421839391
 30
0.0
 11
1324.599298947226
 21
1043.98421839391
 31
0.0
  0
LINE
  5
120
330
1F
100
AcDbEntity
  8
0
  6
Continuous
 62
     7
100
AcDbLine
 10
1324.599298947226
 20
1043.98421839391
 30
0.0
 11
1329.599298947226
 21
1043.98421839391
 31
0.0
  0
LINE
  5
121
330
1F
100
AcDbEntity
  8
0
  6
Continuous
 62
     7
100
AcDbLine
 10
1330.599298947226
 20
1032.78598952014
 30
0.0
 11
1330.599298947226
 21
1032.98421839391
 31
0.0
  0
LINE
  5
122
330
1F
100
AcDbEntity
  8
0
  6
Continuous
 62
     2
100
AcDbLine
 10
1329.599298947226
 20
1043.98421839391
 30
0.0
 11
1329.599298947226
 21
1032.98421839391
 31
0.0
  0
LINE
  5
123
330
1F
100
AcDbEntity
  8
0
  6
Continuous
 62
     7
100
AcDbLine
 10
1330.599298947226
 20
1042.98421839391
 30
0.0
 11
1330.599298947226
 21
1041.38598952014
 31
0.0
  0
LINE
  5
124
330
1F
100
AcDbEntity
  8
0
  6
Continuous
 62
     2
100
AcDbLine
 10
1330.599298947226
 20
1032.98421839391
 30
0.0
 11
1329.599298947226
 21
1032.98421839391
 31
0.0
  0
LINE
  5
125
330
1F
100
AcDbEntity
  8
0
  6
Continuous
 62
     2
100
AcDbLine
 10
1324.599298947226
 20
1032.98421839391
 30
0.0
 11
1329.599298947226
 21
1032.98421839391
 31
0.0
  0
LINE
  5
126
330
1F
100
AcDbEntity
  8
0
  6
Continuous
 62
     7
100
AcDbLine
 10
1330.599298947226
 20
1041.38598952014
 30
0.0
 11
1330.599298947226
 21
1032.98421839391
 31
0.0
  0
LINE
  5
127
330
1F
100
AcDbEntity
  8
0
  6
Continuous
 62
     2
100
AcDbLine
 10
1330.599298947226
 20
997.7859895201378
 30
0.0
 11
1329.599298947226
 21
997.7859895201378
 31
0.0
  0
LINE
  5
128
330
1F
100
AcDbEntity
  8
0
  6
Continuous
 62
     7
100
AcDbLine
 10
1330.599298947226
 20
994.985989520372
 30
0.0
 11
1330.599298947226
 21
997.7859895201378
 31
0.0
  0
LINE
  5
129
330
1F
100
AcDbEntity
  8
0
  6
Continuous
 62
     2
100
AcDbLine
 10
1329.599298947226
 20
991.785989520138
 30
0.0
 11
1329.599298947226
 21
997.7859895201378
 31
0.0
  0
LINE
  5
12A
330
1F
100
AcDbEntity
  8
0
  6
Continuous
 62
     7
100
AcDbLine
 10
1340.099298947225
 20
997.8550682122345
 30
0.0
 11
1340.099298947225
 21
994.985989520372
 31
0.0
  0
LINE
  5
12B
330
1F
100
AcDbEntity
  8
0
  6
Continuous
 62
     2
100
AcDbLine
 10
1339.099298947225
 20
994.985989520372
 30
0.0
 11
1339.099298947225
 21
986.3859895203719
 31
0.0
  0
LINE
  5
12C
330
1F
100
AcDbEntity
  8
0
  6
Continuous
 62
     7
100
AcDbLine
 10
1330.599298947226
 20
991.785989520138
 30
0.0
 11
1330.599298947226
 21
986.3859895203719
 31
0.0
  0
LINE
  5
12D
330
1F
100
AcDbEntity
  8
0
  6
Continuous
 62
     7
100
AcDbLine
 10
1330.599298947226
 20
986.3859895203719
 30
0.0
 11
1330.599298947226
 21
984.785989520138
 31
0.0
  0
LINE
  5
12E
330
1F
100
AcDbEntity
  8
0
  6
Continuous
 62
     7
100
AcDbLine
 10
1330.599298947226
 20
986.3859895203719
 30
0.0
 11
1339.099298947225
 21
986.3859895203719
 31
0.0
  0
LINE
  5
12F
330
1F
100
AcDbEntity
  8
0
  6
Continuous
 62
     2
100
AcDbLine
 10
1330.599298947226
 20
991.785989520138
 30
0.0
 11
1329.599298947226
 21
991.785989520138
 31
0.0
  0
LINE
  5
130
330
1F
100
AcDbEntity
  8
0
  6
Continuous
 62
     2
100
AcDbLine
 10
1340.099298947225
 20
994.985989520372
 30
0.0
 11
1339.099298947225
 21
994.985989520372
 31
0.0
  0
LINE
  5
131
330
1F
100
AcDbEntity
  8
0
  6
Continuous
 62
     7
100
AcDbLine
 10
1340.099298947225
 20
994.985989520372
 30
0.0
 11
1340.099298947225
 21
991.3590278366105
 31
0.0
  0
LINE
  5
132
330
1F
100
AcDbEntity
  8
0
  6
Continuous
 62
     2
100
AcDbLine
 10
1330.599298947226
 20
994.985989520372
 30
0.0
 11
1339.099298947225
 21
994.985989520372
 31
0.0
  0
LINE
  5
133
330
1F
100
AcDbEntity
  8
0
  6
Continuous
 62
     7
100
AcDbLine
 10
1340.099298947225
 20
991.3590278366105
 30
0.0
 11
1340.099298947225
 21
987.3859895203717
 31
0.0
  0
LINE
  5
134
330
1F
100
AcDbEntity
  8
0
  6
Continuous
 62
     7
100
AcDbLine
 10
1330.599298947226
 20
991.785989520138
 30
0.0
 11
1330.599298947226
 21
994.985989520372
 31
0.0
  0
LINE
  5
135
330
1F
100
AcDbEntity
  8
0
  6
Continuous
 62
     7
100
AcDbLine
 10
1340.099298947225
 20
991.3590278366105
 30
0.0
 11
1354.145036579258
 21
991.8495158028002
 31
0.0
  0
LINE
  5
136
330
1F
100
AcDbEntity
  8
0
  6
Continuous
 62
     2
100
AcDbLine
 10
1340.099298947225
 20
997.8550682122345
 30
0.0
 11
1354.772237137591
 21
998.3674585045471
 31
0.0
  0
LINE
  5
137
330
1F
100
AcDbEntity
  8
0
  6
Continuous
 62
     2
100
AcDbLine
 10
1104.937868439799
 20
1029.927905538132
 30
0.0
 11
1113.338972115924
 21
1025.125795391073
 31
0.0
  0
LINE
  5
138
330
1F
100
AcDbEntity
  8
0
  6
Continuous
 62
     2
100
AcDbLine
 10
1104.607671322682
 20
1020.034847761773
 30
0.0
 11
1096.206659339923
 21
1024.836798282175
 31
0.0
  0
LINE
  5
139
330
1F
100
AcDbEntity
  8
0
  6
Continuous
 62
     2
100
AcDbLine
 10
1113.338972115924
 20
1024.836959496954
 30
0.0
 11
1104.937868439799
 21
1020.034849349894
 31
0.0
  0
LINE
  5
13A
330
1F
100
AcDbEntity
  8
0
  6
Continuous
 62
     2
100
AcDbLine
 10
1112.921218624462
 20
1024.981377444013
 30
0.0
 11
1104.772768492049
 21
1029.639069644014
 31
0.0
  0
LINE
  5
13B
330
1F
100
AcDbEntity
  8
0
  6
Continuous
 62
     2
100
AcDbLine
 10
1104.772768492049
 20
1020.323685244014
 30
0.0
 11
1112.921218624462
 21
1024.981377444013
 31
0.0
  0
LINE
  5
13C
330
1F
100
AcDbEntity
  8
0
  6
Continuous
 62
     2
100
AcDbLine
 10
1108.931329904473
 20
1023.275496935575
 30
0.0
 11
1107.600560704458
 21
1022.514879255425
 31
0.0
  0
LINE
  5
13D
330
1F
100
AcDbEntity
  8
0
  6
Continuous
 62
     2
100
AcDbLine
 10
1107.766999192048
 20
1023.376428801018
 30
0.0
 11
1108.598822279638
 21
1023.851843485268
 31
0.0
  0
LINE
  5
13E
330
1F
100
AcDbEntity
  8
0
  6
Continuous
 62
     2
100
AcDbLine
 10
1107.766999192048
 20
1024.648685144014
 30
0.0
 11
1107.766999192048
 21
1023.376428801018
 31
0.0
  0
LINE
  5
13F
330
1F
100
AcDbEntity
  8
0
  6
Continuous
 62
     2
100
AcDbLine
 10
1107.766999192048
 20
1024.648685144014
 30
0.0
 11
1108.765076092047
 21
1024.648685144014
 31
0.0
  0
LINE
  5
140
330
1F
100
AcDbEntity
  8
0
  6
Continuous
 62
     2
100
AcDbLine
 10
1104.772768492049
 20
1026.280800987953
 30
0.0
 11
1105.815417708604
 21
1028.086722405501
 31
0.0
  0
LINE
  5
141
330
1F
100
AcDbEntity
  8
0
  6
Continuous
 62
     2
100
AcDbLine
 10
1107.766999192048
 20
1025.314069744014
 30
0.0
 11
1108.765076092047
 21
1025.314069744014
 31
0.0
  0
LINE
  5
142
330
1F
100
AcDbEntity
  8
0
  6
Continuous
 62
     2
100
AcDbLine
 10
1108.598822279634
 20
1026.110855185153
 30
0.0
 11
1107.766999192048
 21
1026.586329151843
 31
0.0
  0
LINE
  5
143
330
1F
100
AcDbEntity
  8
0
  6
Continuous
 62
     2
100
AcDbLine
 10
1107.60056070446
 20
1027.447875632601
 30
0.0
 11
1108.931329904438
 21
1026.687201734864
 31
0.0
  0
LINE
  5
144
330
1F
100
AcDbEntity
  8
0
  6
Continuous
 62
     2
100
AcDbLine
 10
1105.770845392048
 20
1026.678751688613
 30
0.0
 11
1105.770845392048
 21
1022.042378632526
 31
0.0
  0
LINE
  5
145
330
1F
100
AcDbEntity
  8
0
  6
Continuous
 62
     2
100
AcDbLine
 10
1107.101614592047
 20
1027.159702357751
 30
0.0
 11
1107.101614592047
 21
1022.803052530276
 31
0.0
  0
LINE
  5
146
330
1F
100
AcDbEntity
  8
0
  6
Continuous
 62
     2
100
AcDbLine
 10
1105.770845392048
 20
1026.678751688613
 30
0.0
 11
1104.91682848377
 21
1025.199551012953
 31
0.0
  0
LINE
  5
147
330
1F
100
AcDbEntity
  8
0
  6
Continuous
 62
     2
100
AcDbLine
 10
1107.766999192048
 20
1026.586329151843
 30
0.0
 11
1107.766999192048
 21
1025.314069744014
 31
0.0
  0
LINE
  5
148
330
1F
100
AcDbEntity
  8
0
  6
Continuous
 62
     2
100
AcDbLine
 10
1106.436229992048
 20
1027.920376255501
 30
0.0
 11
1106.436229992048
 21
1022.042378632526
 31
0.0
  0
LINE
  5
149
330
1F
100
AcDbEntity
  8
0
  6
Continuous
 62
     2
100
AcDbLine
 10
1104.772768492049
 20
1029.639069644014
 30
0.0
 11
1096.624136427229
 21
1024.981377444013
 31
0.0
  0
LINE
  5
14A
330
1F
100
AcDbEntity
  8
0
  6
Continuous
 62
     2
100
AcDbLine
 10
1103.730119275492
 20
1028.086722405501
 30
0.0
 11
1104.772768492049
 21
1026.280800987953
 31
0.0
  0
LINE
  5
14B
330
1F
100
AcDbEntity
  8
0
  6
Continuous
 62
     2
100
AcDbLine
 10
1104.628708500325
 20
1025.199551012953
 30
0.0
 11
1103.774691592047
 21
1026.678751688613
 31
0.0
  0
LINE
  5
14C
330
1F
100
AcDbEntity
  8
0
  6
Continuous
 62
     2
100
AcDbLine
 10
1104.273822379634
 20
1021.183687341447
 30
0.0
 11
1102.111414767218
 21
1022.419702047896
 31
0.0
  0
LINE
  5
14D
330
1F
100
AcDbEntity
  8
0
  6
Continuous
 62
     2
100
AcDbLine
 10
1102.443922392048
 20
1022.996048597594
 30
0.0
 11
1104.606330004487
 21
1021.76003389113
 31
0.0
  0
LINE
  5
14E
330
1F
100
AcDbEntity
  8
0
  6
Continuous
 62
     2
100
AcDbLine
 10
1096.624136427229
 20
1024.981377444013
 30
0.0
 11
1104.772768492049
 21
1020.323685244014
 31
0.0
  0
LINE
  5
14F
330
1F
100
AcDbEntity
  8
0
  6
Continuous
 62
     2
100
AcDbLine
 10
1103.109306992047
 20
1027.920376255501
 30
0.0
 11
1103.109306992047
 21
1023.563670210417
 31
0.0
  0
LINE
  5
150
330
1F
100
AcDbEntity
  8
0
  6
Continuous
 62
     2
100
AcDbLine
 10
1103.774691592047
 20
1026.678751688613
 30
0.0
 11
1103.774691592047
 21
1023.563670210417
 31
0.0
  0
LINE
  5
151
330
1F
100
AcDbEntity
  8
0
  6
Continuous
 62
     2
100
AcDbLine
 10
1101.113153192049
 20
1026.39908467761
 30
0.0
 11
1101.113153192049
 21
1023.563670210417
 31
0.0
  0
LINE
  5
152
330
1F
100
AcDbEntity
  8
0
  6
Continuous
 62
     2
100
AcDbLine
 10
1100.447768592048
 20
1026.39908467761
 30
0.0
 11
1100.447768592048
 21
1023.563670210417
 31
0.0
  0
LINE
  5
153
330
1F
100
AcDbEntity
  8
0
  6
Continuous
 62
     2
100
AcDbLine
 10
1102.443922392048
 20
1027.166836139148
 30
0.0
 11
1102.443922392048
 21
1022.996048597594
 31
0.0
  0
LINE
  5
154
330
1F
100
AcDbEntity
  8
0
  6
Continuous
 62
     2
100
AcDbLine
 10
1101.778537792048
 20
1027.166836139148
 30
0.0
 11
1101.778537792048
 21
1022.996048597594
 31
0.0
  0
LINE
  5
155
330
1F
100
AcDbEntity
  8
0
  6
Continuous
 62
     2
100
AcDbLine
 10
1096.206659339923
 20
1025.125956605853
 30
0.0
 11
1104.607671322682
 21
1029.927907126253
 31
0.0
  0
LWPOLYLINE
  5
156
330
1F
100
AcDbEntity
  8
Skizziergeometrie_ISO_
  6
Continuous
 62
     7
100
AcDbPolyline
 90
        2
 70
     0
 43
0.5
 10
1114.599298947225
 20
808.6925014954597
 10
1114.599298947225
 20
738.6925014954597
  0
LWPOLYLINE
  5
157
330
1F
100
AcDbEntity
  8
Skizziergeometrie_ISO_
  6
Continuous
 62
     7
100
AcDbPolyline
 90
        2
 70
     0
 43
0.5
 10
1453.949288121373
 20
747.2673583273709
 10
1453.949288121373
 20
757.1982933399529
  0
LWPOLYLINE
  5
158
330
1F
100
AcDbEntity
  8
Skizziergeometrie_ISO_
  6
Continuous
 62
     7
100
AcDbPolyline
 90
        2
 70
     0
 43
0.5
 10
1453.949288121373
 20
757.1982933399529
 10
1452.237974081819
 20
754.2342104757415
  0
LWPOLYLINE
  5
159
330
1F
100
AcDbEntity
  8
Skizziergeometrie_ISO_
  6
Continuous
 62
     7
100
AcDbPolyline
 90
        2
 70
     0
 43
0.5
 10
1451.660623812632
 20
754.2342104757415
 10
1449.949309773077
 20
757.1982933399529
  0
LWPOLYLINE
  5
15A
330
1F
100
AcDbEntity
  8
Skizziergeometrie_ISO_
  6
Continuous
 62
     7
100
AcDbPolyline
 90
        2
 70
     0
 43
0.5
 10
1449.949309773077
 20
757.1982933399529
 10
1449.949309773077
 20
750.3859627135865
  0
LWPOLYLINE
  5
15B
330
1F
100
AcDbEntity
  8
Skizziergeometrie_ISO_
  6
Continuous
 62
     7
100
AcDbPolyline
 90
        2
 70
     0
 43
0.5
 10
1435.116428396943
 20
753.9812300241423
 10
1451.949298947225
 20
763.6925014954613
  0
LWPOLYLINE
  5
15C
330
1F
100
AcDbEntity
  8
Skizziergeometrie_ISO_
  6
Continuous
 62
     7
100
AcDbPolyline
 90
        2
 70
     0
 43
0.5
 10
1451.949298947225
 20
763.6925014954613
 10
1468.782169497507
 20
753.9812300241423
  0
LWPOLYLINE
  5
15D
330
1F
100
AcDbEntity
  8
Skizziergeometrie_ISO_
  6
Continuous
 62
     7
100
AcDbPolyline
 90
        2
 70
     0
 43
0.5
 10
1468.782169497507
 20
753.4037729667771
 10
1451.949298947225
 20
743.6925014954581
  0
LWPOLYLINE
  5
15E
330
1F
100
AcDbEntity
  8
Skizziergeometrie_ISO_
  6
Continuous
 62
     7
100
AcDbPolyline
 90
        2
 70
     0
 43
0.5
 10
1451.949298947225
 20
743.6925014954581
 10
1435.116428396943
 20
753.4037729667771
  0
LWPOLYLINE
  5
15F
330
1F
100
AcDbEntity
  8
Skizziergeometrie_ISO_
  6
Continuous
 62
     7
100
AcDbPolyline
 90
        2
 70
     0
 43
0.5
 10
1448.615976439745
 20
750.3859627135865
 10
1448.615976439744
 20
760.1966174288215
  0
LWPOLYLINE
  5
160
330
1F
100
AcDbEntity
  8
Skizziergeometrie_ISO_
  6
Continuous
 62
     7
100
AcDbPolyline
 90
        2
 70
     0
 43
0.5
 10
1449.604843806992
 20
760.4615836412967
 10
1451.949298947225
 20
756.4008682223451
  0
LWPOLYLINE
  5
161
330
1F
100
AcDbEntity
  8
Skizziergeometrie_ISO_
  6
Continuous
 62
     7
100
AcDbPolyline
 90
        2
 70
     0
 43
0.5
 10
1455.282621454707
 20
747.2673583273709
 10
1455.282621454707
 20
760.1966174288214
  0
LWPOLYLINE
  5
162
330
1F
100
AcDbEntity
  8
Skizziergeometrie_ISO_
  6
Continuous
 62
     7
100
AcDbPolyline
 90
        2
 70
     0
 43
0.5
 10
1454.29375408746
 20
760.4615836412967
 10
1451.949298947225
 20
756.4008682223451
  0
LWPOLYLINE
  5
163
330
1F
100
AcDbEntity
  8
Skizziergeometrie_ISO_
  6
Continuous
 62
     7
100
AcDbPolyline
 90
        2
 70
     0
 43
0.5
 10
1445.949300964831
 20
749.2325451711837
 10
1445.949300964831
 20
758.5791780434059
  0
LWPOLYLINE
  5
164
330
1F
100
AcDbEntity
  8
Skizziergeometrie_ISO_
  6
Continuous
 62
     7
100
AcDbPolyline
 90
        2
 70
     0
 43
0.5
 10
1447.282634298165
 20
758.5791780434059
 10
1447.282634298165
 20
749.2325426275213
  0
LWPOLYLINE
  5
165
330
1F
100
AcDbEntity
  8
Skizziergeometrie_ISO_
  6
Continuous
 62
     7
100
AcDbPolyline
 90
        2
 70
     0
 43
0.5
 10
1447.282634298165
 20
749.2325426275213
 10
1451.617906910791
 20
746.7314238125435
  0
LWPOLYLINE
  5
166
330
1F
100
AcDbEntity
  8
Skizziergeometrie_ISO_
  6
Continuous
 62
     7
100
AcDbPolyline
 90
        2
 70
     0
 43
0.5
 10
1450.951610306139
 20
745.576509697812
 10
1446.616339896795
 20
748.0776272416643
  0
LWPOLYLINE
  5
167
330
1F
100
AcDbEntity
  8
Skizziergeometrie_ISO_
  6
Continuous
 62
     7
100
AcDbPolyline
 90
        2
 70
     0
 43
0.5
 10
1444.615965613891
 20
756.9990402773329
 10
1444.615965613891
 20
750.3859627135865
  0
LWPOLYLINE
  5
168
330
1F
100
AcDbEntity
  8
Skizziergeometrie_ISO_
  6
Continuous
 62
     7
100
AcDbPolyline
 90
        2
 70
     0
 43
0.5
 10
1443.28263228056
 20
750.3859627135865
 10
1443.28263228056
 20
756.9990402773329
  0
LWPOLYLINE
  5
169
102
{ACAD_REACTORS
330
269
102
}
330
1F
100
AcDbEntity
  8
Skizziergeometrie_ISO_
  6
Continuous
 62
     7
100
AcDbPolyline
 90
        2
 70
     0
 43
0.5
 10
1457.61577856528
 20
759.1566351007717
 10
1460.354684026471
 20
757.5764973346987
  0
LWPOLYLINE
  5
16A
102
{ACAD_REACTORS
330
269
102
}
330
1F
100
AcDbEntity
  8
Skizziergeometrie_ISO_
  6
Continuous
 62
     7
100
AcDbPolyline
 90
        2
 70
     0
 43
0.5
 10
1459.688387421819
 20
756.4215832199671
 10
1457.949296929619
 20
757.4249046577745
  0
LWPOLYLINE
  5
16B
102
{ACAD_REACTORS
330
269
102
}
330
1F
100
AcDbEntity
  8
Skizziergeometrie_ISO_
  6
Continuous
 62
     7
100
AcDbPolyline
 90
        2
 70
     0
 43
0.5
 10
1457.949296929619
 20
757.4249046577745
 10
1457.949296929619
 20
754.3591681621265
  0
LWPOLYLINE
  5
16C
102
{ACAD_REACTORS
330
269
102
}
330
1F
100
AcDbEntity
  8
Skizziergeometrie_ISO_
  6
Continuous
 62
     7
100
AcDbPolyline
 90
        2
 70
     0
 43
0.5
 10
1457.949296929619
 20
754.3591681621265
 10
1460.021535724146
 20
754.3591681621265
  0
LWPOLYLINE
  5
16D
102
{ACAD_REACTORS
330
269
102
}
330
1F
100
AcDbEntity
  8
Skizziergeometrie_ISO_
  6
Continuous
 62
     7
100
AcDbPolyline
 90
        2
 70
     0
 43
0.5
 10
1460.021535724146
 20
753.0258348287929
 10
1457.949296929619
 20
753.0258348287929
  0
LWPOLYLINE
  5
16E
102
{ACAD_REACTORS
330
269
102
}
330
1F
100
AcDbEntity
  8
Skizziergeometrie_ISO_
  6
Continuous
 62
     7
100
AcDbPolyline
 90
        2
 70
     0
 43
0.5
 10
1457.949296929619
 20
753.0258348287929
 10
1457.949296929619
 20
749.9600983331449
  0
LWPOLYLINE
  5
16F
102
{ACAD_REACTORS
330
269
102
}
330
1F
100
AcDbEntity
  8
Skizziergeometrie_ISO_
  6
Continuous
 62
     7
100
AcDbPolyline
 90
        2
 70
     0
 43
0.5
 10
1457.949296929619
 20
749.9600983331449
 10
1459.688387421819
 20
750.9634197709523
  0
LWPOLYLINE
  5
170
102
{ACAD_REACTORS
330
269
102
}
330
1F
100
AcDbEntity
  8
Skizziergeometrie_ISO_
  6
Continuous
 62
     7
100
AcDbPolyline
 90
        2
 70
     0
 43
0.5
 10
1460.354684026471
 20
749.8085056562207
 10
1457.61577856528
 20
748.2283678901478
  0
LWPOLYLINE
  5
171
102
{ACAD_REACTORS
330
269
102
}
330
1F
100
AcDbEntity
  8
Skizziergeometrie_ISO_
  6
Continuous
 62
     7
100
AcDbPolyline
 90
        2
 70
     0
 43
0.5
 10
1456.615963596285
 20
748.8058249475135
 10
1456.615963596285
 20
758.5791780434059
  0
LWPOLYLINE
  5
172
330
1F
100
AcDbEntity
  8
Skizziergeometrie_ISO_
  6
Continuous
 62
     7
100
AcDbPolyline
 90
        2
 70
     0
 43
0.5
 10
1429.299298947226
 20
768.6925014954597
 10
1429.299298947226
 20
738.6925014954597
  0
LWPOLYLINE
  5
173
330
1F
100
AcDbEntity
  8
Skizziergeometrie_ISO_
  6
Continuous
 62
     7
100
AcDbPolyline
 90
        2
 70
     0
 43
0.5
 10
1394.599298947225
 20
768.6925014954597
 10
1394.599298947225
 20
738.6925014954597
  0
LWPOLYLINE
  5
174
330
1F
100
AcDbEntity
  8
Skizziergeometrie_ISO_
  6
Continuous
 62
     7
100
AcDbPolyline
 90
        2
 70
     0
 43
0.5
 10
1174.599298947226
 20
738.6925014954597
 10
1174.599298947226
 20
768.6925014954597
  0
LWPOLYLINE
  5
175
330
1F
100
AcDbEntity
  8
Skizziergeometrie_ISO_
  6
Continuous
 62
     7
100
AcDbPolyline
 90
        2
 70
     0
 43
0.5
 10
1164.599298947225
 20
808.6925014954597
 10
1164.599298947225
 20
768.6925014954597
  0
LWPOLYLINE
  5
176
330
1F
100
AcDbEntity
  8
Skizziergeometrie_ISO_
  6
Continuous
 62
     7
100
AcDbPolyline
 90
        2
 70
     0
 43
0.5
 10
1128.599298947225
 20
808.6925014954597
 10
1128.599298947225
 20
768.6925014954597
  0
LWPOLYLINE
  5
177
330
1F
100
AcDbEntity
  8
Skizziergeometrie_ISO_
  6
Continuous
 62
     7
100
AcDbPolyline
 90
        2
 70
     0
 43
0.5
 10
1114.599298947225
 20
753.6925014954597
 10
1174.599298947226
 20
753.6925014954597
  0
LWPOLYLINE
  5
178
330
1F
100
AcDbEntity
  8
Skizziergeometrie_ISO_
  6
Continuous
 62
     7
100
AcDbPolyline
 90
        2
 70
     0
 43
0.5
 10
1114.599298947225
 20
768.6925014954597
 10
1474.599298947225
 20
768.6925014954597
  0
LWPOLYLINE
  5
179
330
1F
100
AcDbEntity
  8
Skizziergeometrie_ISO_
  6
Continuous
 62
     7
100
AcDbPolyline
 90
        2
 70
     0
 43
0.5
 10
1114.599298947225
 20
778.6925014954597
 10
1474.599298947225
 20
778.6925014954597
  0
LWPOLYLINE
  5
17A
330
1F
100
AcDbEntity
  8
Skizziergeometrie_ISO_
  6
Continuous
 62
     7
100
AcDbPolyline
 90
        2
 70
     0
 43
0.5
 10
1114.599298947225
 20
788.6925014954597
 10
1474.599298947225
 20
788.6925014954597
  0
LWPOLYLINE
  5
17B
330
1F
100
AcDbEntity
  8
Skizziergeometrie_ISO_
  6
Continuous
 62
     7
100
AcDbPolyline
 90
        2
 70
     0
 43
0.5
 10
1114.599298947225
 20
798.6925014954597
 10
1474.599298947225
 20
798.6925014954597
  0
LWPOLYLINE
  5
17C
330
1F
100
AcDbEntity
  8
Skizziergeometrie_ISO_
  6
Continuous
 62
     7
100
AcDbPolyline
 90
        2
 70
     0
 43
0.5
 10
1114.599298947225
 20
808.6925014954597
 10
1474.599298947225
 20
808.6925014954597
  0
LINE
  5
17D
330
1F
100
AcDbEntity
  8
0
  6
Continuous
 62
     7
100
AcDbLine
 10
1460.354684026471
 20
749.8085056562207
 30
0.0
 11
1457.61577856528
 21
748.2283678901478
 31
0.0
  0
LINE
  5
17E
330
1F
100
AcDbEntity
  8
0
  6
Continuous
 62
     7
100
AcDbLine
 10
1456.615963596285
 20
748.8058249475135
 30
0.0
 11
1456.615963596285
 21
758.5791780434059
 31
0.0
  0
LINE
  5
17F
330
1F
100
AcDbEntity
  8
0
  6
Continuous
 62
     7
100
AcDbLine
 10
1457.61577856528
 20
759.1566351007717
 30
0.0
 11
1460.354684026471
 21
757.5764973346987
 31
0.0
  0
LINE
  5
180
330
1F
100
AcDbEntity
  8
0
  6
Continuous
 62
     7
100
AcDbLine
 10
1459.688387421819
 20
756.4215832199671
 30
0.0
 11
1457.949296929619
 21
757.4249046577745
 31
0.0
  0
LINE
  5
181
330
1F
100
AcDbEntity
  8
0
  6
Continuous
 62
     7
100
AcDbLine
 10
1457.949296929619
 20
757.4249046577745
 30
0.0
 11
1457.949296929619
 21
754.3591681621265
 31
0.0
  0
LINE
  5
182
330
1F
100
AcDbEntity
  8
0
  6
Continuous
 62
     7
100
AcDbLine
 10
1457.949296929619
 20
754.3591681621265
 30
0.0
 11
1460.021535724146
 21
754.3591681621265
 31
0.0
  0
LINE
  5
183
330
1F
100
AcDbEntity
  8
0
  6
Continuous
 62
     7
100
AcDbLine
 10
1460.021535724146
 20
753.0258348287929
 30
0.0
 11
1457.949296929619
 21
753.0258348287929
 31
0.0
  0
LINE
  5
184
330
1F
100
AcDbEntity
  8
0
  6
Continuous
 62
     7
100
AcDbLine
 10
1457.949296929619
 20
753.0258348287929
 30
0.0
 11
1457.949296929619
 21
749.9600983331449
 31
0.0
  0
LINE
  5
185
330
1F
100
AcDbEntity
  8
0
  6
Continuous
 62
     7
100
AcDbLine
 10
1457.949296929619
 20
749.9600983331449
 30
0.0
 11
1459.688387421819
 21
750.9634197709523
 31
0.0
  0
LINE
  5
186
102
{ACAD_REACTORS
330
268
102
}
330
1F
100
AcDbEntity
  8
0
  6
Continuous
 62
     7
100
AcDbLine
 10
1448.615976439744
 20
760.1966174288215
 30
0.0
 11
1448.615976439745
 21
750.3859627135865
 31
0.0
  0
LINE
  5
187
102
{ACAD_REACTORS
330
268
102
}
330
1F
100
AcDbEntity
  8
0
  6
Continuous
 62
     7
100
AcDbLine
 10
1449.949309773077
 20
750.3859627135865
 30
0.0
 11
1449.949309773077
 21
757.1982933399529
 31
0.0
  0
LINE
  5
188
102
{ACAD_REACTORS
330
268
102
}
330
1F
100
AcDbEntity
  8
0
  6
Continuous
 62
     7
100
AcDbLine
 10
1449.949309773077
 20
757.1982933399529
 30
0.0
 11
1451.660623812632
 21
754.2342104757415
 31
0.0
  0
LINE
  5
189
102
{ACAD_REACTORS
330
268
102
}
330
1F
100
AcDbEntity
  8
0
  6
Continuous
 62
     7
100
AcDbLine
 10
1452.237974081819
 20
754.2342104757415
 30
0.0
 11
1453.949288121373
 21
757.1982933399529
 31
0.0
  0
LINE
  5
18A
102
{ACAD_REACTORS
330
268
102
}
330
1F
100
AcDbEntity
  8
0
  6
Continuous
 62
     7
100
AcDbLine
 10
1453.949288121373
 20
757.1982933399529
 30
0.0
 11
1453.949288121373
 21
747.2673583273709
 31
0.0
  0
LINE
  5
18B
102
{ACAD_REACTORS
330
268
102
}
330
1F
100
AcDbEntity
  8
0
  6
Continuous
 62
     7
100
AcDbLine
 10
1455.282621454707
 20
747.2673583273709
 30
0.0
 11
1455.282621454707
 21
760.1966174288214
 31
0.0
  0
LINE
  5
18C
102
{ACAD_REACTORS
330
268
102
}
330
1F
100
AcDbEntity
  8
0
  6
Continuous
 62
     7
100
AcDbLine
 10
1454.29375408746
 20
760.4615836412967
 30
0.0
 11
1451.949298947225
 21
756.4008682223451
 31
0.0
  0
LINE
  5
18D
102
{ACAD_REACTORS
330
268
102
}
330
1F
100
AcDbEntity
  8
0
  6
Continuous
 62
     7
100
AcDbLine
 10
1451.949298947225
 20
756.4008682223451
 30
0.0
 11
1449.604843806992
 21
760.4615836412967
 31
0.0
  0
LINE
  5
18E
102
{ACAD_REACTORS
330
267
102
}
330
1F
100
AcDbEntity
  8
0
  6
Continuous
 62
     7
100
AcDbLine
 10
1447.282634298165
 20
749.2325426275213
 30
0.0
 11
1447.282634298165
 21
758.5791780434059
 31
0.0
  0
LINE
  5
18F
102
{ACAD_REACTORS
330
267
102
}
330
1F
100
AcDbEntity
  8
0
  6
Continuous
 62
     7
100
AcDbLine
 10
1445.949300964831
 20
758.5791780434059
 30
0.0
 11
1445.949300964831
 21
749.2325451711837
 31
0.0
  0
LINE
  5
190
102
{ACAD_REACTORS
330
267
102
}
330
1F
100
AcDbEntity
  8
0
  6
Continuous
 62
     7
100
AcDbLine
 10
1446.616339896795
 20
748.0776272416643
 30
0.0
 11
1450.951610306139
 21
745.576509697812
 31
0.0
  0
LINE
  5
191
102
{ACAD_REACTORS
330
267
102
}
330
1F
100
AcDbEntity
  8
0
  6
Continuous
 62
     7
100
AcDbLine
 10
1451.617906910791
 20
746.7314238125435
 30
0.0
 11
1447.282634298165
 21
749.2325426275213
 31
0.0
  0
LINE
  5
192
102
{ACAD_REACTORS
330
266
102
}
330
1F
100
AcDbEntity
  8
0
  6
Continuous
 62
     7
100
AcDbLine
 10
1444.615965613891
 20
756.9990402773329
 30
0.0
 11
1444.615965613891
 21
750.3859627135865
 31
0.0
  0
LINE
  5
193
102
{ACAD_REACTORS
330
266
102
}
330
1F
100
AcDbEntity
  8
0
  6
Continuous
 62
     7
100
AcDbLine
 10
1443.28263228056
 20
750.3859627135865
 30
0.0
 11
1443.28263228056
 21
756.9990402773329
 31
0.0
  0
ARC
  5
194
330
1F
100
AcDbEntity
  8
0
  6
Continuous
 62
     2
100
AcDbCircle
 10
1276.700754348605
 20
1010.465200125495
 30
0.0
 40
79.00323902979014
100
AcDbArc
 50
351.1916594277356
 51
0.01487927443767
  0
ARC
  5
195
330
1F
100
AcDbEntity
  8
0
  6
Continuous
 62
     7
100
AcDbCircle
 10
1066.110334859732
 20
887.9450184306646
 30
0.0
 40
1.0
100
AcDbArc
 50
180.0
 51
270.0
  0
ARC
  5
196
330
1F
100
AcDbEntity
  8
0
  6
Continuous
 62
     7
100
AcDbCircle
 10
1135.726499340761
 20
890.4450184306646
 30
0.0
 40
1.500000000000223
100
AcDbArc
 50
185.0000000000034
 51
270.0
  0
ARC
  5
197
330
1F
100
AcDbEntity
  8
0
  6
Continuous
 62
     7
100
AcDbCircle
 10
1146.071577202532
 20
891.4450184306646
 30
0.0
 40
1.499999999999886
100
AcDbArc
 50
90.0
 51
175.0000000000022
  0
ARC
  5
198
330
1F
100
AcDbEntity
  8
0
  6
Continuous
 62
     7
100
AcDbCircle
 10
1142.972629026376
 20
890.4450184306645
 30
0.0
 40
1.5
100
AcDbArc
 50
270.0
 51
355.000000000006
  0
ARC
  5
199
330
1F
100
AcDbEntity
  8
0
  6
Continuous
 62
     7
100
AcDbCircle
 10
1132.627551164605
 20
891.4450184306645
 30
0.0
 40
1.50000000000044
100
AcDbArc
 50
4.99999999999832
 51
90.0
  0
ARC
  5
19A
330
1F
100
AcDbEntity
  8
0
  6
Continuous
 62
     7
100
AcDbCircle
 10
1192.142963731996
 20
878.4450184306646
 30
0.0
 40
1.0
100
AcDbArc
 50
270.0
 51
0.0
  0
ARC
  5
19B
330
1F
100
AcDbEntity
  8
0
  6
Continuous
 62
     7
100
AcDbCircle
 10
1212.592963731473
 20
887.9450184306646
 30
0.0
 40
1.000000000000114
100
AcDbArc
 50
270.0
 51
0.0
  0
ARC
  5
19C
330
1F
100
AcDbEntity
  8
0
  6
Continuous
 62
     7
100
AcDbCircle
 10
1184.026882804558
 20
861.945021503641
 30
0.0
 40
3.000003110791605
100
AcDbArc
 50
270.0000089872906
 51
357.9999974138796
  0
ARC
  5
19D
330
1F
100
AcDbEntity
  8
0
  6
Continuous
 62
     7
100
AcDbCircle
 10
1086.55856373199
 20
878.4450184306647
 30
0.0
 40
1.0
100
AcDbArc
 50
180.0
 51
270.0
  0
ARC
  5
19E
330
1F
100
AcDbEntity
  8
0
  6
Continuous
 62
     7
100
AcDbCircle
 10
1084.260334859732
 20
887.9450184306646
 30
0.0
 40
1.0
100
AcDbArc
 50
180.0
 51
270.0
  0
ARC
  5
19F
330
1F
100
AcDbEntity
  8
0
  6
Continuous
 62
     7
100
AcDbCircle
 10
1094.674648080923
 20
861.9450279262675
 30
0.0
 40
3.000006754349243
100
AcDbArc
 50
182.0000370175292
 51
270.0000370175579
  0
ARC
  5
1A0
330
1F
100
AcDbEntity
  8
0
  6
Continuous
 62
     2
100
AcDbCircle
 10
1094.14056373199
 20
1032.785989520138
 30
0.0
 40
7.600000000000136
100
AcDbArc
 50
90.0
 51
180.0
  0
ARC
  5
1A1
330
1F
100
AcDbEntity
  8
0
  6
Continuous
 62
     7
100
AcDbCircle
 10
1094.14056373199
 20
1032.785989520138
 30
0.0
 40
8.600000000000136
100
AcDbArc
 50
90.0
 51
180.0
  0
ARC
  5
1A2
330
1F
100
AcDbEntity
  8
0
  6
Continuous
 62
     2
100
AcDbCircle
 10
1094.242334859731
 20
1032.984218393908
 30
0.0
 40
10.0
100
AcDbArc
 50
90.0
 51
180.0
  0
ARC
  5
1A3
330
1F
100
AcDbEntity
  8
0
  6
Continuous
 62
     2
100
AcDbCircle
 10
1184.524963731994
 20
1032.785989520138
 30
0.0
 40
7.600000000001046
100
AcDbArc
 50
0.0
 51
90.0
  0
ARC
  5
1A4
330
1F
100
AcDbEntity
  8
0
  6
Continuous
 62
     7
100
AcDbCircle
 10
1184.524963731994
 20
1032.785989520138
 30
0.0
 40
8.600000000001046
100
AcDbArc
 50
0.0
 51
90.0
  0
ARC
  5
1A5
330
1F
100
AcDbEntity
  8
0
  6
Continuous
 62
     7
100
AcDbCircle
 10
1205.574963731473
 20
1029.984218393908
 30
0.0
 40
7.999999999999886
100
AcDbArc
 50
270.0
 51
0.0
  0
ARC
  5
1A6
330
1F
100
AcDbEntity
  8
0
  6
Continuous
 62
     2
100
AcDbCircle
 10
1205.574963731473
 20
1035.984218393908
 30
0.0
 40
7.0
100
AcDbArc
 50
0.0
 51
90.0
  0
ARC
  5
1A7
330
1F
100
AcDbEntity
  8
0
  6
Continuous
 62
     2
100
AcDbCircle
 10
1205.574963731473
 20
1029.984218393908
 30
0.0
 40
6.999999999999886
100
AcDbArc
 50
270.0
 51
0.0
  0
ARC
  5
1A8
330
1F
100
AcDbEntity
  8
0
  6
Continuous
 62
     7
100
AcDbCircle
 10
1205.574963731473
 20
1035.984218393908
 30
0.0
 40
8.0
100
AcDbArc
 50
0.0
 51
90.0
  0
ARC
  5
1A9
330
1F
100
AcDbEntity
  8
0
  6
Continuous
 62
     7
100
AcDbCircle
 10
1077.242334859731
 20
1011.785989520136
 30
0.0
 40
6.0
100
AcDbArc
 50
270.0
 51
0.0
  0
ARC
  5
1AA
330
1F
100
AcDbEntity
  8
0
  6
Continuous
 62
     2
100
AcDbCircle
 10
1077.242334859731
 20
1011.785989520136
 30
0.0
 40
7.0
100
AcDbArc
 50
270.0
 51
0.0
  0
ARC
  5
1AB
330
1F
100
AcDbEntity
  8
0
  6
Continuous
 62
     7
100
AcDbCircle
 10
1073.092334859731
 20
991.7859895201359
 30
0.0
 40
8.0
100
AcDbArc
 50
180.0
 51
270.0
  0
ARC
  5
1AC
330
1F
100
AcDbEntity
  8
0
  6
Continuous
 62
     7
100
AcDbCircle
 10
1073.092334859731
 20
997.7859895201359
 30
0.0
 40
8.000000000000114
100
AcDbArc
 50
90.0
 51
180.0
  0
ARC
  5
1AD
330
1F
100
AcDbEntity
  8
0
  6
Continuous
 62
     2
100
AcDbCircle
 10
1073.092334859731
 20
991.7859895201359
 30
0.0
 40
7.0
100
AcDbArc
 50
180.0
 51
270.0
  0
ARC
  5
1AE
330
1F
100
AcDbEntity
  8
0
  6
Continuous
 62
     2
100
AcDbCircle
 10
1073.092334859731
 20
997.7859895201359
 30
0.0
 40
7.000000000000114
100
AcDbArc
 50
90.0
 51
180.0
  0
ARC
  5
1AF
330
1F
100
AcDbEntity
  8
0
  6
Continuous
 62
     7
100
AcDbCircle
 10
1097.609581469656
 20
997.8550682122325
 30
0.0
 40
6.496040375624034
100
AcDbArc
 50
180.0
 51
270.0
  0
ARC
  5
1B0
330
1F
100
AcDbEntity
  8
0
  6
Continuous
 62
     2
100
AcDbCircle
 10
1094.14056373199
 20
994.9859895203698
 30
0.0
 40
7.599999999999909
100
AcDbArc
 50
180.0
 51
270.0
  0
ARC
  5
1B1
330
1F
100
AcDbEntity
  8
0
  6
Continuous
 62
     7
100
AcDbCircle
 10
1094.14056373199
 20
994.9859895203698
 30
0.0
 40
8.599999999999909
100
AcDbArc
 50
180.0
 51
270.0
  0
ARC
  5
1B2
330
1F
100
AcDbEntity
  8
0
  6
Continuous
 62
     7
100
AcDbCircle
 10
1184.424963731995
 20
994.7859895201359
 30
0.0
 40
11.0
100
AcDbArc
 50
270.0
 51
0.0
  0
ARC
  5
1B3
330
1F
100
AcDbEntity
  8
0
  6
Continuous
 62
     7
100
AcDbCircle
 10
1181.055945994329
 20
1029.91697178247
 30
0.0
 40
6.496040375624034
100
AcDbArc
 50
0.0
 51
90.0
  0
ARC
  5
1B4
330
1F
100
AcDbEntity
  8
0
  6
Continuous
 62
     7
100
AcDbCircle
 10
1097.609581469656
 20
1029.91697178247
 30
0.0
 40
6.496040375624034
100
AcDbArc
 50
90.0
 51
180.0
  0
ARC
  5
1B5
330
1F
100
AcDbEntity
  8
0
  6
Continuous
 62
     7
100
AcDbCircle
 10
1201.424963731995
 20
1015.984218393908
 30
0.0
 40
6.0
100
AcDbArc
 50
90.0
 51
180.0
  0
ARC
  5
1B6
330
1F
100
AcDbEntity
  8
0
  6
Continuous
 62
     2
100
AcDbCircle
 10
1201.424963731995
 20
1015.984218393908
 30
0.0
 40
7.0
100
AcDbArc
 50
90.0
 51
180.0
  0
ARC
  5
1B7
330
1F
100
AcDbEntity
  8
0
  6
Continuous
 62
     2
100
AcDbCircle
 10
1184.524963731995
 20
994.9859895203697
 30
0.0
 40
7.600000000000136
100
AcDbArc
 50
269.9999999999915
 51
0.00000000000171
  0
ARC
  5
1B8
330
1F
100
AcDbEntity
  8
0
  6
Continuous
 62
     7
100
AcDbCircle
 10
1184.524963731995
 20
994.9859895203697
 30
0.0
 40
8.600000000000023
100
AcDbArc
 50
270.0
 51
0.00000000000151
  0
ARC
  5
1B9
330
1F
100
AcDbEntity
  8
0
  6
Continuous
 62
     2
100
AcDbCircle
 10
1184.424963731995
 20
994.7859895201359
 30
0.0
 40
10.0
100
AcDbArc
 50
270.0
 51
0.0
  0
ARC
  5
1BA
330
1F
100
AcDbEntity
  8
0
  6
Continuous
 62
     7
100
AcDbCircle
 10
1181.055945994329
 20
997.8550682122325
 30
0.0
 40
6.496040375624034
100
AcDbArc
 50
270.0
 51
0.0
  0
ARC
  5
1BB
330
1F
100
AcDbEntity
  8
0
  6
Continuous
 62
     7
100
AcDbCircle
 10
1094.242334859731
 20
1032.984218393908
 30
0.0
 40
11.0
100
AcDbArc
 50
90.0
 51
180.0
  0
ARC
  5
1BC
330
1F
100
AcDbEntity
  8
0
  6
Continuous
 62
     7
100
AcDbCircle
 10
1276.599298947225
 20
1017.307192485285
 30
0.0
 40
82.00000000000054
100
AcDbArc
 50
8.80819954011421
 51
11.37212603991121
  0
ARC
  5
1BD
330
1F
100
AcDbEntity
  8
0
  6
Continuous
 62
     7
100
AcDbCircle
 10
1276.599298947225
 20
1010.464786554991
 30
0.0
 40
82.00000000000013
100
AcDbArc
 50
348.6274855857253
 51
351.1918493866027
  0
ARC
  5
1BE
330
1F
100
AcDbEntity
  8
0
  6
Continuous
 62
     7
100
AcDbCircle
 10
1354.040335275683
 20
994.8476260625168
 30
0.0
 40
2.999937914755678
100
AcDbArc
 50
272.000095174978
 51
348.5984575325386
  0
ARC
  5
1BF
330
1F
100
AcDbEntity
  8
0
  6
Continuous
 62
     7
100
AcDbCircle
 10
1354.040318284047
 20
1032.924408925998
 30
0.0
 40
2.999943510899481
100
AcDbArc
 50
11.40156957104283
 51
87.99989026890101
  0
ARC
  5
1C0
330
1F
100
AcDbEntity
  8
0
  6
Continuous
 62
     2
100
AcDbCircle
 10
1276.700786447569
 20
1017.30673000959
 30
0.0
 40
79.00320631902737
100
AcDbArc
 50
359.9851540147895
 51
8.80842533756388
  0
ARC
  5
1C1
330
1F
100
AcDbEntity
  8
0
  6
Continuous
 62
     7
100
AcDbCircle
 10
1276.599298947225
 20
1010.464786554991
 30
0.0
 40
82.00000000000055
100
AcDbArc
 50
351.1918493866027
 51
0.014815127229
  0
ARC
  5
1C2
330
1F
100
AcDbEntity
  8
0
  6
Continuous
 62
     7
100
AcDbCircle
 10
1329.599298947226
 20
984.785989520138
 30
0.0
 40
1.000000000000114
100
AcDbArc
 50
270.0
 51
0.0
  0
ARC
  5
1C3
330
1F
100
AcDbEntity
  8
0
  6
Continuous
 62
     7
100
AcDbCircle
 10
1329.599298947226
 20
1004.785989520138
 30
0.0
 40
1.0
100
AcDbArc
 50
0.0
 51
90.0
  0
ARC
  5
1C4
330
1F
100
AcDbEntity
  8
0
  6
Continuous
 62
     7
100
AcDbCircle
 10
1339.099298947225
 20
1040.38598952014
 30
0.0
 40
1.0
100
AcDbArc
 50
0.0
 51
90.0
  0
ARC
  5
1C5
330
1F
100
AcDbEntity
  8
0
  6
Continuous
 62
     7
100
AcDbCircle
 10
1329.599298947226
 20
1042.98421839391
 30
0.0
 40
1.0
100
AcDbArc
 50
0.0
 51
90.0
  0
ARC
  5
1C6
330
1F
100
AcDbEntity
  8
0
  6
Continuous
 62
     7
100
AcDbCircle
 10
1339.099298947225
 20
987.3859895203717
 30
0.0
 40
0.9999999999997726
100
AcDbArc
 50
270.0
 51
0.0
  0
ARC
  5
1C7
330
1F
100
AcDbEntity
  8
0
  6
Continuous
 62
     7
100
AcDbCircle
 10
1276.599298947225
 20
1017.307192485286
 30
0.0
 40
82.00000000000065
100
AcDbArc
 50
359.985184872771
 51
8.80819954011351
  0
ARC
  5
1C8
330
1F
100
AcDbEntity
  8
0
  6
Continuous
 62
     2
100
AcDbCircle
 10
1113.256422142047
 20
1024.981377444013
 30
0.0
 40
0.1663461500000401
100
AcDbArc
 50
299.7524870761645
 51
60.24751292399095
  0
ARC
  5
1C9
330
1F
100
AcDbEntity
  8
0
  6
Continuous
 62
     2
100
AcDbCircle
 10
1104.772768492049
 20
1020.323685244014
 30
0.0
 40
0.3326923000014465
100
AcDbArc
 50
240.2480640653318
 51
299.7524870754651
  0
ARC
  5
1CA
330
1F
100
AcDbEntity
  8
0
  6
Continuous
 62
     2
100
AcDbCircle
 10
1107.434306892047
 20
1022.803052530276
 30
0.0
 40
0.3326922999999624
100
AcDbArc
 50
180.0
 51
299.9816393683953
  0
ARC
  5
1CB
330
1F
100
AcDbEntity
  8
0
  6
Continuous
 62
     2
100
AcDbCircle
 10
1108.765076092055
 20
1023.563670210422
 30
0.0
 40
0.3326923000002781
100
AcDbArc
 50
299.9816393697652
 51
119.9816393697417
  0
ARC
  5
1CC
330
1F
100
AcDbEntity
  8
0
  6
Continuous
 62
     2
100
AcDbCircle
 10
1106.103537692048
 20
1022.042378632526
 30
0.0
 40
0.3326922999999624
100
AcDbArc
 50
180.0
 51
0.0
  0
ARC
  5
1CD
330
1F
100
AcDbEntity
  8
0
  6
Continuous
 62
     2
100
AcDbCircle
 10
1108.765076092047
 20
1024.981377444013
 30
0.0
 40
0.3326922999990529
100
AcDbArc
 50
270.0
 51
90.0
  0
ARC
  5
1CE
330
1F
100
AcDbEntity
  8
0
  6
Continuous
 62
     2
100
AcDbCircle
 10
1106.103537692048
 20
1027.920376255501
 30
0.0
 40
0.3326923000001898
100
AcDbArc
 50
0.0
 51
150.0000000000437
  0
ARC
  5
1CF
330
1F
100
AcDbEntity
  8
0
  6
Continuous
 62
     2
100
AcDbCircle
 10
1104.772768492049
 20
1025.282724087952
 30
0.0
 40
0.1663461500013631
100
AcDbArc
 50
209.9999999993183
 51
330.0000000001727
  0
ARC
  5
1D0
330
1F
100
AcDbEntity
  8
0
  6
Continuous
 62
     2
100
AcDbCircle
 10
1108.765076092036
 20
1026.399028460009
 30
0.0
 40
0.3326923000002023
100
AcDbArc
 50
240.0183606333919
 51
60.01836063329403
  0
ARC
  5
1D1
330
1F
100
AcDbEntity
  8
0
  6
Continuous
 62
     2
100
AcDbCircle
 10
1107.434306892047
 20
1027.159702357751
 30
0.0
 40
0.3326923000003387
100
AcDbArc
 50
60.01836063123546
 51
180.0
  0
ARC
  5
1D2
330
1F
100
AcDbEntity
  8
0
  6
Continuous
 62
     2
100
AcDbCircle
 10
1103.441999292048
 20
1027.920376255501
 30
0.0
 40
0.3326923000004019
100
AcDbArc
 50
29.9999999999563
 51
180.0
  0
ARC
  5
1D3
330
1F
100
AcDbEntity
  8
0
  6
Continuous
 62
     2
100
AcDbCircle
 10
1100.780460892047
 20
1026.39908467761
 30
0.0
 40
0.3326923000020088
100
AcDbArc
 50
0.0
 51
180.0
  0
ARC
  5
1D4
330
1F
100
AcDbEntity
  8
0
  6
Continuous
 62
     2
100
AcDbCircle
 10
1102.111230092048
 20
1027.166836139148
 30
0.0
 40
0.3326923000001898
100
AcDbArc
 50
0.0
 51
180.0
  0
ARC
  5
1D5
330
1F
100
AcDbEntity
  8
0
  6
Continuous
 62
     2
100
AcDbCircle
 10
1096.289299619791
 20
1024.981377444013
 30
0.0
 40
0.1665309277431734
100
AcDbArc
 50
119.75193593429
 51
240.2480640653995
  0
ARC
  5
1D6
330
1F
100
AcDbEntity
  8
0
  6
Continuous
 62
     2
100
AcDbCircle
 10
1100.780460892047
 20
1023.563670210417
 30
0.0
 40
0.3326922999988255
100
AcDbArc
 50
180.0
 51
0.0
  0
ARC
  5
1D7
330
1F
100
AcDbEntity
  8
0
  6
Continuous
 62
     2
100
AcDbCircle
 10
1102.443922392048
 20
1022.996048597594
 30
0.0
 40
0.6653846000001522
100
AcDbArc
 50
180.0
 51
240.0183606308398
  0
ARC
  5
1D8
330
1F
100
AcDbEntity
  8
0
  6
Continuous
 62
     2
100
AcDbCircle
 10
1103.441999292048
 20
1023.563670210417
 30
0.0
 40
0.3326923000008719
100
AcDbArc
 50
180.0
 51
0.0
  0
ARC
  5
1D9
330
1F
100
AcDbEntity
  8
0
  6
Continuous
 62
     2
100
AcDbCircle
 10
1104.440076192062
 20
1021.471860616287
 30
0.0
 40
0.3326922999992706
100
AcDbArc
 50
240.0183606281456
 51
60.01836062880706
  0
ARC
  5
1DA
330
1F
100
AcDbEntity
  8
0
  6
Continuous
 62
     2
100
AcDbCircle
 10
1104.772768492049
 20
1029.639069644014
 30
0.0
 40
0.3326922999982748
100
AcDbArc
 50
60.24751292437944
 51
119.7519359348236
  0
LWPOLYLINE
  5
1DB
330
1F
100
AcDbEntity
  8
Skizziergeometrie_ISO_
  6
Continuous
 62
     7
100
AcDbPolyline
 90
        2
 70
     0
 43
0.5
 10
1451.660623812632
 20
754.2342104757415
 42
0.5773502691884
 10
1452.237974081819
 20
754.2342104757415
 42
0.5773502691884
  0
LWPOLYLINE
  5
1DC
330
1F
100
AcDbEntity
  8
Skizziergeometrie_ISO_
  6
Continuous
 62
     7
100
AcDbPolyline
 90
        2
 70
     0
 43
0.5
 10
1445.949300964831
 20
749.2325451711837
 42
0.26803505952205
 10
1446.616339896795
 20
748.0776272416643
 42
0.26803505952205
  0
LWPOLYLINE
  5
1DD
330
1F
100
AcDbEntity
  8
Skizziergeometrie_ISO_
  6
Continuous
 62
     7
100
AcDbPolyline
 90
        2
 70
     0
 43
0.5
 10
1435.116428396943
 20
753.9812300241423
 42
0.57756392459703
 10
1435.116428396943
 20
753.4037729667771
 42
0.57756392459703
  0
LWPOLYLINE
  5
1DE
330
1F
100
AcDbEntity
  8
Skizziergeometrie_ISO_
  6
Continuous
 62
     7
100
AcDbPolyline
 90
        2
 70
     0
 43
0.5
 10
1468.782169497507
 20
753.4037729667771
 42
0.57756392460018
 10
1468.782169497507
 20
753.9812300241423
 42
0.57756392460018
  0
LWPOLYLINE
  5
1DF
102
{ACAD_REACTORS
330
269
102
}
330
1F
100
AcDbEntity
  8
Skizziergeometrie_ISO_
  6
Continuous
 62
     7
100
AcDbPolyline
 90
        2
 70
     0
 43
0.5
 10
1457.61577856528
 20
759.1566351007717
 42
0.57724345630796
 10
1456.615963596285
 20
758.5791780434059
 42
0.57724345630796
  0
LWPOLYLINE
  5
1E0
102
{ACAD_REACTORS
330
269
102
}
330
1F
100
AcDbEntity
  8
Skizziergeometrie_ISO_
  6
Continuous
 62
     7
100
AcDbPolyline
 90
        2
 70
     0
 43
0.5
 10
1456.615963596285
 20
748.8058249475135
 42
0.57724345630796
 10
1457.61577856528
 20
748.2283678901478
 42
0.57724345630796
  0
LWPOLYLINE
  5
1E1
330
1F
100
AcDbEntity
  8
Skizziergeometrie_ISO_
  6
Continuous
 62
     7
100
AcDbPolyline
 90
        2
 70
     0
 43
0.5
 10
1449.604843806992
 20
760.4615836412967
 42
0.76732698797928
 10
1448.615976439744
 20
760.1966174288215
 42
0.76732698797928
  0
LWPOLYLINE
  5
1E2
330
1F
100
AcDbEntity
  8
Skizziergeometrie_ISO_
  6
Continuous
 62
     7
100
AcDbPolyline
 90
        2
 70
     0
 43
0.5
 10
1448.615976439745
 20
750.3859627135865
 42
1.0
 10
1449.949309773077
 20
750.3859627135865
 42
1.0
  0
LWPOLYLINE
  5
1E3
330
1F
100
AcDbEntity
  8
Skizziergeometrie_ISO_
  6
Continuous
 62
     7
100
AcDbPolyline
 90
        2
 70
     0
 43
0.5
 10
1453.949288121373
 20
747.2673583273709
 42
1.0
 10
1455.282621454707
 20
747.2673583273709
 42
1.0
  0
LWPOLYLINE
  5
1E4
330
1F
100
AcDbEntity
  8
Skizziergeometrie_ISO_
  6
Continuous
 62
     7
100
AcDbPolyline
 90
        2
 70
     0
 43
0.5
 10
1455.282621454707
 20
760.1966174288214
 42
0.76732698797844
 10
1454.29375408746
 20
760.4615836412967
 42
0.76732698797844
  0
LWPOLYLINE
  5
1E5
330
1F
100
AcDbEntity
  8
Skizziergeometrie_ISO_
  6
Continuous
 62
     7
100
AcDbPolyline
 90
        2
 70
     0
 43
0.5
 10
1447.282634298165
 20
758.5791780434059
 42
1.0
 10
1445.949300964831
 20
758.5791780434059
 42
1.0
  0
LWPOLYLINE
  5
1E6
330
1F
100
AcDbEntity
  8
Skizziergeometrie_ISO_
  6
Continuous
 62
     7
100
AcDbPolyline
 90
        2
 70
     0
 43
0.5
 10
1450.951610306139
 20
745.576509697812
 42
1.0
 10
1451.617906910791
 20
746.7314238125435
 42
1.0
  0
LWPOLYLINE
  5
1E7
330
1F
100
AcDbEntity
  8
Skizziergeometrie_ISO_
  6
Continuous
 62
     7
100
AcDbPolyline
 90
        2
 70
     0
 43
0.5
 10
1444.615965613891
 20
756.9990402773329
 42
1.0
 10
1443.28263228056
 20
756.9990402773329
 42
1.0
  0
LWPOLYLINE
  5
1E8
330
1F
100
AcDbEntity
  8
Skizziergeometrie_ISO_
  6
Continuous
 62
     7
100
AcDbPolyline
 90
        2
 70
     0
 43
0.5
 10
1443.28263228056
 20
750.3859627135865
 42
1.0
 10
1444.615965613891
 20
750.3859627135865
 42
1.0
  0
LWPOLYLINE
  5
1E9
102
{ACAD_REACTORS
330
269
102
}
330
1F
100
AcDbEntity
  8
Skizziergeometrie_ISO_
  6
Continuous
 62
     7
100
AcDbPolyline
 90
        2
 70
     0
 43
0.5
 10
1459.688387421819
 20
756.4215832199671
 42
1.00000000000118
 10
1460.354684026471
 20
757.5764973346987
 42
1.00000000000118
  0
LWPOLYLINE
  5
1EA
102
{ACAD_REACTORS
330
269
102
}
330
1F
100
AcDbEntity
  8
Skizziergeometrie_ISO_
  6
Continuous
 62
     7
100
AcDbPolyline
 90
        2
 70
     0
 43
0.5
 10
1460.021535724146
 20
753.0258348287929
 42
1.0
 10
1460.021535724146
 20
754.3591681621265
 42
1.0
  0
LWPOLYLINE
  5
1EB
102
{ACAD_REACTORS
330
269
102
}
330
1F
100
AcDbEntity
  8
Skizziergeometrie_ISO_
  6
Continuous
 62
     7
100
AcDbPolyline
 90
        2
 70
     0
 43
0.5
 10
1460.354684026471
 20
749.8085056562207
 42
1.00000000000118
 10
1459.688387421819
 20
750.9634197709523
 42
1.00000000000118
  0
ARC
  5
1EC
330
1F
100
AcDbEntity
  8
0
  6
Continuous
 62
     7
100
AcDbCircle
 10
1457.282630262953
 20
748.8058249475135
 30
0.0
 40
0.6666666666681067
100
AcDbArc
 50
180.0
 51
299.9816393688844
  0
ARC
  5
1ED
330
1F
100
AcDbEntity
  8
0
  6
Continuous
 62
     7
100
AcDbCircle
 10
1457.282630262953
 20
758.5791780434059
 30
0.0
 40
0.666666666666969
100
AcDbArc
 50
60.01836063111551
 51
180.0
  0
ARC
  5
1EE
330
1F
100
AcDbEntity
  8
0
  6
Continuous
 62
     7
100
AcDbCircle
 10
1460.021535724146
 20
756.9990402773329
 30
0.0
 40
0.666666666666969
100
AcDbArc
 50
240.0183606311155
 51
60.01835942376008
  0
ARC
  5
1EF
330
1F
100
AcDbEntity
  8
0
  6
Continuous
 62
     7
100
AcDbCircle
 10
1460.021535724146
 20
753.6925014954597
 30
0.0
 40
0.6666666666668561
100
AcDbArc
 50
270.0
 51
90.0
  0
ARC
  5
1F0
330
1F
100
AcDbEntity
  8
0
  6
Continuous
 62
     7
100
AcDbCircle
 10
1460.021535724146
 20
750.3859627135865
 30
0.0
 40
0.66666666666606
100
AcDbArc
 50
299.9816393687491
 51
119.9816393688845
  0
ARC
  5
1F1
102
{ACAD_REACTORS
330
268
102
}
330
1F
100
AcDbEntity
  8
0
  6
Continuous
 62
     7
100
AcDbCircle
 10
1449.145908864695
 20
760.1966174288215
 30
0.0
 40
0.5299324249511409
100
AcDbArc
 50
29.9999999999539
 51
180.0
  0
ARC
  5
1F2
102
{ACAD_REACTORS
330
268
102
}
330
1F
100
AcDbEntity
  8
0
  6
Continuous
 62
     7
100
AcDbCircle
 10
1449.282643106411
 20
750.3859627135865
 30
0.0
 40
0.666666666665833
100
AcDbArc
 50
180.0
 51
0.0
  0
ARC
  5
1F3
102
{ACAD_REACTORS
330
268
102
}
330
1F
100
AcDbEntity
  8
0
  6
Continuous
 62
     7
100
AcDbCircle
 10
1451.949298947225
 20
754.4008771424081
 30
0.0
 40
0.3333333333318977
100
AcDbArc
 50
210.0000000001349
 51
329.9999999999237
  0
ARC
  5
1F4
102
{ACAD_REACTORS
330
268
102
}
330
1F
100
AcDbEntity
  8
0
  6
Continuous
 62
     7
100
AcDbCircle
 10
1454.615954788039
 20
747.2673583273709
 30
0.0
 40
0.6666666666660603
100
AcDbArc
 50
180.0
 51
0.0
  0
ARC
  5
1F5
102
{ACAD_REACTORS
330
268
102
}
330
1F
100
AcDbEntity
  8
0
  6
Continuous
 62
     7
100
AcDbCircle
 10
1454.752689029755
 20
760.1966174288214
 30
0.0
 40
0.5299324249519941
100
AcDbArc
 50
0.0
 51
149.9999999999248
  0
ARC
  5
1F6
102
{ACAD_REACTORS
330
267
102
}
330
1F
100
AcDbEntity
  8
0
  6
Continuous
 62
     7
100
AcDbCircle
 10
1446.615967631497
 20
758.5791780434059
 30
0.0
 40
0.6666666666681067
100
AcDbArc
 50
0.0
 51
180.0
  0
ARC
  5
1F7
102
{ACAD_REACTORS
330
267
102
}
330
1F
100
AcDbEntity
  8
0
  6
Continuous
 62
     7
100
AcDbCircle
 10
1447.282638702287
 20
749.2325451711837
 30
0.0
 40
1.333337737455849
100
AcDbArc
 50
180.0
 51
240.0183606311468
  0
ARC
  5
1F8
102
{ACAD_REACTORS
330
267
102
}
330
1F
100
AcDbEntity
  8
0
  6
Continuous
 62
     7
100
AcDbCircle
 10
1451.284758608465
 20
746.1539667551777
 30
0.0
 40
0.6666666666665145
100
AcDbArc
 50
240.0183606311832
 51
60.01836063118322
  0
ARC
  5
1F9
102
{ACAD_REACTORS
330
266
102
}
330
1F
100
AcDbEntity
  8
0
  6
Continuous
 62
     7
100
AcDbCircle
 10
1443.949298947225
 20
750.3859627135865
 30
0.0
 40
0.6666666666651508
100
AcDbArc
 50
180.0
 51
0.0
  0
ARC
  5
1FA
102
{ACAD_REACTORS
330
266
102
}
330
1F
100
AcDbEntity
  8
0
  6
Continuous
 62
     7
100
AcDbCircle
 10
1443.949298947225
 20
756.9990402773329
 30
0.0
 40
0.666666666665833
100
AcDbArc
 50
0.0
 51
180.0
  0
CIRCLE
  5
1FB
330
1F
100
AcDbEntity
  8
0
  6
Continuous
 62
     7
100
AcDbCircle
 10
1203.024963732178
 20
1033.385989520228
 30
0.0
 40
3.230998166344079
  0
CIRCLE
  5
1FC
330
1F
100
AcDbEntity
  8
0
  6
Continuous
 62
     7
100
AcDbCircle
 10
1203.024963732178
 20
1033.385989520228
 30
0.0
 40
3.257184087913174
  0
CIRCLE
  5
1FD
330
1F
100
AcDbEntity
  8
0
  6
Continuous
 62
     7
100
AcDbCircle
 10
1075.640563732179
 20
994.3859895199314
 30
0.0
 40
3.230998166344079
  0
CIRCLE
  5
1FE
330
1F
100
AcDbEntity
  8
0
  6
Continuous
 62
     7
100
AcDbCircle
 10
1075.640563732179
 20
994.3859895199314
 30
0.0
 40
3.257184087913174
  0
SPLINE
  5
1FF
330
1F
100
AcDbEntity
  8
0
  6
Continuous
 62
     2
100
AcDbSpline
210
0.0
220
0.0
230
1.0
 70
     8
 71
     3
 72
    11
 73
     7
 74
     5
 42
0.0000000001
 43
0.0000000001
 44
0.00000001
 40
0.0
 40
0.0
 40
0.0
 40
0.0
 40
20.61604739724422
 40
41.23209479448843
 40
59.15144227324866
 40
82.46538991906682
 40
82.46538991906682
 40
82.46538991906682
 40
82.46538991906682
 10
1098.118068875904
 20
863.3992968332788
 30
0.0
 10
1104.990084674985
 20
863.399299271427
 30
0.0
 10
1118.734116273147
 20
863.3993041477231
 30
0.0
 10
1138.451263697561
 20
863.3993177085657
 30
0.0
 10
1159.067711204834
 20
863.3993062247546
 30
0.0
 10
1172.812142913027
 20
863.399304009956
 30
0.0
 10
1180.583458794966
 20
863.3993027576745
 30
0.0
 11
1098.118068875904
 21
863.3992968332788
 31
0.0
 11
1118.734116273147
 21
863.3993052918288
 31
0.0
 11
1139.350163670389
 21
863.3993137503787
 31
0.0
 11
1157.269511149148
 21
863.3993082540266
 31
0.0
 11
1180.583458794966
 21
863.3993027576745
 31
0.0
  0
SPLINE
  5
200
330
1F
100
AcDbEntity
  8
0
  6
Continuous
 62
     2
100
AcDbSpline
210
0.0
220
0.0
230
1.0
 70
     8
 71
     3
 72
    11
 73
     7
 74
     5
 42
0.0000000001
 43
0.0000000001
 44
0.00000001
 40
0.0
 40
0.0
 40
0.0
 40
0.0
 40
20.61643501088907
 40
41.23287002177814
 40
59.15260523016357
 40
82.46694060560917
 40
82.46694060560917
 40
82.46694060560917
 40
82.46694060560917
 10
1098.117293648611
 20
860.5632571893966
 30
0.0
 10
1104.989438652241
 20
860.5632569967456
 30
0.0
 10
1118.7337286595
 20
860.5632566114432
 30
0.0
 10
1138.451263736221
 20
860.5632561744759
 30
0.0
 10
1159.068098934461
 20
860.5632552649802
 30
0.0
 10
1172.812789129071
 20
860.5632549103567
 30
0.0
 10
1180.58423425422
 20
860.5632547098476
 30
0.0
 11
1098.117293648611
 21
860.5632571893966
 31
0.0
 11
1118.7337286595
 21
860.5632566316208
 31
0.0
 11
1139.350163670389
 21
860.5632560738449
 31
0.0
 11
1157.269898878774
 21
860.563255391846
 31
0.0
 11
1180.58423425422
 21
860.5632547098476
 31
0.0
  0
SPLINE
  5
201
330
1F
100
AcDbEntity
  8
0
  6
Continuous
 62
     2
100
AcDbSpline
210
0.0
220
0.0
230
1.0
 70
     8
 71
     3
 72
    27
 73
    23
 74
    21
 42
0.0000000001
 43
0.0000000001
 44
0.00000001
 40
0.0
 40
0.0
 40
0.0
 40
0.0
 40
0.0051800384658041
 40
0.0118388707617288
 40
0.0268973166504735
 40
0.0484013885660257
 40
0.0874648308204937
 40
0.1387628310685497
 40
0.2025616261987331
 40
0.2956907945555707
 40
0.4070923490700345
 40
0.5359398753124142
 40
0.6814067734208499
 40
0.8426663503132822
 40
1.017885800347664
 40
1.205478487236392
 40
1.403328221760602
 40
1.609318784584984
 40
1.821333938822289
 40
2.181925864863414
 40
2.543262918742552
 40
2.896818626925499
 40
2.896818626925499
 40
2.896818626925499
 40
2.896818626925499
 10
1357.632240839408
 20
997.9084205083129
 30
0.0
 10
1357.630636554418
 20
997.9090658755026
 30
0.0
 10
1357.626969994257
 20
997.9105408488649
 30
0.0
 10
1357.618197686294
 20
997.9125038969955
 30
0.0
 10
1357.604124900181
 20
997.9155232718352
 30
0.0
 10
1357.57936327642
 20
997.9202977724058
 30
0.0
 10
1357.542695521423
 20
997.9270500014318
 30
0.0
 10
1357.492091553227
 20
997.9359978835271
 30
0.0
 10
1357.42369401265
 20
997.9477982358752
 30
0.0
 10
1357.335498392734
 20
997.9626879337162
 30
0.0
 10
1357.225875365142
 20
997.9809030068269
 30
0.0
 10
1357.099000999551
 20
998.0017280092613
 30
0.0
 10
1356.955690133009
 20
998.0250202601353
 30
0.0
 10
1356.797088335461
 20
998.05058332506
 30
0.0
 10
1356.624591967541
 20
998.0781842168537
 30
0.0
 10
1356.440024327784
 20
998.1075381705946
 30
0.0
 10
1356.245301688365
 20
998.1383438114158
 30
0.0
 10
1356.04251469873
 20
998.1702724313865
 30
0.0
 10
1355.786112972026
 20
998.2104633290514
 30
0.0
 10
1355.47851142803
 20
998.2584025505682
 30
0.0
 10
1355.124245057421
 20
998.3133022574095
 30
0.0
 10
1354.888718571041
 20
998.3495378927043
 30
0.0
 10
1354.772237137591
 20
998.3674585045471
 30
0.0
 11
1357.632240839408
 21
997.9084205083129
 31
0.0
 11
1357.627390733585
 21
997.9102396487718
 31
0.0
 11
1357.620938249466
 21
997.9118844880478
 31
0.0
 11
1357.60621226946
 21
997.9150312809295
 31
0.0
 11
1357.585109841643
 21
997.9191680247203
 31
0.0
 11
1357.546697856624
 21
997.9262723844856
 31
0.0
 11
1357.496189937758
 21
997.9352409385102
 31
0.0
 11
1357.433323023302
 21
997.9461054369704
 31
0.0
 11
1357.34149826436
 21
997.9616378432281
 31
0.0
 11
1357.231606489036
 21
997.9799163569633
 31
0.0
 11
1357.104462559411
 21
998.000799512333
 31
0.0
 11
1356.960881337566
 21
998.0241458434955
 31
0.0
 11
1356.801677685582
 21
998.0498138846084
 31
0.0
 11
1356.628660386767
 21
998.077506302005
 31
0.0
 11
1356.443397005348
 21
998.1069765527534
 31
0.0
 11
1356.2479782611
 21
998.1378963174318
 31
0.0
 11
1356.0444948738
 21
998.1699372766179
 31
0.0
 11
1355.835037563225
 21
998.2027711108901
 31
0.0
 11
1355.478748907222
 21
998.2583132636206
 31
0.0
 11
1355.121671734918
 21
998.3136337799326
 31
0.0
 11
1354.772237137591
 21
998.3674585045471
 31
0.0
  0
SPLINE
  5
202
330
1F
100
AcDbEntity
  8
0
  6
Continuous
 62
     2
100
AcDbSpline
210
0.0
220
0.0
230
1.0
 70
     8
 71
     3
 72
    34
 73
    30
 74
    28
 42
0.0000000001
 43
0.0000000001
 44
0.00000001
 40
0.0
 40
0.0
 40
0.0
 40
0.0
 40
0.022415300740744
 40
0.0842044037685643
 40
0.1869385984073687
 40
0.33156086222992
 40
0.5189369164612229
 40
0.7325408345390694
 40
0.9538120549898691
 40
1.174146531976939
 40
1.384935784869502
 40
1.577568710754534
 40
1.743432557440763
 40
1.873913484932313
 40
1.960396912520215
 40
2.146208000114763
 40
2.373413950310353
 40
2.640677163210534
 40
2.946660994544696
 40
3.290029826092331
 40
3.669449136304817
 40
4.08358557440511
 40
4.30041621590591
 40
4.567501600030441
 40
4.881831691237052
 40
5.240397454952068
 40
5.640190990841167
 40
6.078205676690665
 40
6.551436330828889
 40
6.551436330828889
 40
6.551436330828889
 40
6.551436330828889
 10
1354.145036579258
 20
991.8495158028002
 30
0.0
 10
1354.148582121425
 20
991.8561279282267
 30
0.0
 10
1354.1619011604
 20
991.8809667686961
 30
0.0
 10
1354.17004004825
 20
991.9438874032036
 30
0.0
 10
1354.189596023523
 20
992.0444743847966
 30
0.0
 10
1354.209379350581
 20
992.1883457799283
 30
0.0
 10
1354.233788848149
 20
992.3684471265747
 30
0.0
 10
1354.259238469609
 20
992.5743410319412
 30
0.0
 10
1354.284881611375
 20
992.7912221936366
 30
0.0
 10
1354.309358572282
 20
993.0073092575701
 30
0.0
 10
1354.332033229941
 20
993.2139875358769
 30
0.0
 10
1354.352189740432
 20
993.4026764055943
 30
0.0
 10
1354.369136559624
 20
993.5647856398571
 30
0.0
 10
1354.382176459485
 20
993.691727108849
 30
0.0
 10
1354.395722903084
 20
993.8253004459281
 30
0.0
 10
1354.412322911445
 20
993.9909711226022
 30
0.0
 10
1354.434454081953
 20
994.2166488404306
 30
0.0
 10
1354.459896749333
 20
994.4822509243381
 30
0.0
 10
1354.488286146458
 20
994.7864681062757
 30
0.0
 10
1354.519265261604
 20
995.1279903383661
 30
0.0
 10
1354.552476153291
 20
995.5055076846907
 30
0.0
 10
1354.581032354518
 20
995.8410908657681
 30
0.0
 10
1354.605779938717
 20
996.1394170646024
 30
0.0
 10
1354.627332941315
 20
996.4046249175051
 30
0.0
 10
1354.652092973558
 20
996.716972380234
 30
0.0
 10
1354.679566212215
 20
997.0734788562204
 30
0.0
 10
1354.709226369441
 20
997.4711659755758
 30
0.0
 10
1354.740678606736
 20
997.907046484115
 30
0.0
 10
1354.761450049723
 20
998.2100841025881
 30
0.0
 10
1354.772237137591
 20
998.3674585045471
 30
0.0
 11
1354.145036579258
 21
991.8495158028002
 31
0.0
 11
1354.154989167505
 21
991.8696004161766
 31
0.0
 11
1354.168715017843
 21
991.9298457005189
 31
0.0
 11
1354.186188843667
 21
992.0310829474153
 31
0.0
 11
1354.207385358372
 21
992.1741434484543
 31
0.0
 11
1354.232279275351
 21
992.3598584952241
 31
0.0
 11
1354.258740019224
 21
992.5718171299901
 31
0.0
 11
1354.284738808827
 21
992.791555647185
 31
0.0
 11
1354.309585300593
 21
993.0104847078327
 31
0.0
 11
1354.332589150957
 21
993.2200149729579
 31
0.0
 11
1354.353060016354
 21
993.4115571035843
 31
0.0
 11
1354.370307553221
 21
993.5765217607373
 31
0.0
 11
1354.38364141799
 21
993.7063196054396
 31
0.0
 11
1354.392371267097
 21
993.7923612987163
 31
0.0
 11
1354.410888645237
 21
993.9772473906212
 31
0.0
 11
1354.433072925115
 21
994.2033677159584
 31
0.0
 11
1354.458564651434
 21
994.469412443136
 31
0.0
 11
1354.487004368901
 21
994.7740717405624
 31
0.0
 11
1354.51803262222
 21
995.1160357766456
 31
0.0
 11
1354.551289956097
 21
995.4939947197936
 31
0.0
 11
1354.586416915237
 21
995.9066387384149
 31
0.0
 11
1354.604341003983
 21
996.1227272715125
 31
0.0
 11
1354.625976402811
 21
996.3889349196568
 31
0.0
 11
1354.650820657134
 21
996.7022816433753
 31
0.0
 11
1354.678371312361
 21
997.0597874031961
 31
0.0
 11
1354.708125913906
 21
997.4584721596461
 31
0.0
 11
1354.739582007179
 21
997.8953558732541
 31
0.0
 11
1354.772237137591
 21
998.3674585045471
 31
0.0
  0
SPLINE
  5
203
330
1F
100
AcDbEntity
  8
0
  6
Continuous
 62
     2
100
AcDbSpline
210
0.0
220
0.0
230
1.0
 70
     8
 71
     3
 72
    29
 73
    25
 74
    23
 42
0.0000000001
 43
0.0000000001
 44
0.00000001
 40
0.0
 40
0.0
 40
0.0
 40
0.0
 40
0.2641048122913672
 40
0.5337857255994584
 40
0.8054456113704491
 40
1.075487365651621
 40
1.287503112169743
 40
1.493494270624959
 40
1.69134459550047
 40
1.878937858843147
 40
2.05415786282744
 40
2.189615672103732
 40
2.314202002512608
 40
2.427438431072108
 40
2.528846570402508
 40
2.61794809476259
 40
2.694264790121927
 40
2.758063819074843
 40
2.80936201172176
 40
2.848425604959886
 40
2.869929763559356
 40
2.88498827485247
 40
2.889442497453778
 40
2.896818137380013
 40
2.896818137380013
 40
2.896818137380013
 40
2.896818137380013
 10
1354.772219013696
 20
1029.40458212306
 30
0.0
 10
1354.859231006008
 20
1029.417963599855
 30
0.0
 10
1355.035092093313
 20
1029.445009079408
 30
0.0
 10
1355.300420964549
 20
1029.486034929018
 30
0.0
 10
1355.567679871461
 20
1029.527528995679
 30
0.0
 10
1355.815916428566
 20
1029.566255281963
 30
0.0
 10
1356.042499294856
 20
1029.601771892483
 30
0.0
 10
1356.245286791092
 20
1029.633701108451
 30
0.0
 10
1356.440009969127
 20
1029.66450710508
 30
0.0
 10
1356.62457812859
 20
1029.693861437221
 30
0.0
 10
1356.788582284457
 20
1029.720103666762
 30
0.0
 10
1356.93182369742
 20
1029.743178466046
 30
0.0
 10
1357.054645557897
 20
1029.7630993057
 30
0.0
 10
1357.166241542024
 20
1029.781340582509
 30
0.0
 10
1357.266140152933
 20
1029.797820116366
 30
0.0
 10
1357.353870191452
 20
1029.812454037754
 30
0.0
 10
1357.42920493158
 20
1029.825202766056
 30
0.0
 10
1357.492081646492
 20
1029.836045588199
 30
0.0
 10
1357.542681343804
 20
1029.845007657718
 30
0.0
 10
1357.579359760142
 20
1029.851726688272
 30
0.0
 10
1357.604101664065
 20
1029.856563962579
 30
0.0
 10
1357.617491867972
 20
1029.859318059914
 30
0.0
 10
1357.626209185109
 20
1029.861432019801
 30
0.0
 10
1357.629917851301
 20
1029.86278449331
 30
0.0
 10
1357.632230117092
 20
1029.863627728605
 30
0.0
 11
1354.772219013696
 21
1029.40458212306
 31
0.0
 11
1355.03324958758
 21
1029.444761612518
 31
0.0
 11
1355.299764797885
 21
1029.48596158435
 31
0.0
 11
1355.568207767534
 21
1029.527644501515
 31
0.0
 11
1355.83502161945
 21
1029.569272826977
 31
0.0
 11
1356.044479450979
 21
1029.602107162403
 31
0.0
 11
1356.247963370579
 21
1029.634148570389
 31
0.0
 11
1356.443382649213
 21
1029.665068735194
 31
0.0
 11
1356.628646557842
 21
1029.694539341078
 31
0.0
 11
1356.801664367427
 21
1029.722232072301
 31
0.0
 11
1356.935397368864
 21
1029.74377975015
 31
0.0
 11
1357.058375749631
 21
1029.76373148162
 31
0.0
 11
1357.170127942086
 21
1029.782005403871
 31
0.0
 11
1357.270182378584
 21
1029.798519654065
 31
0.0
 11
1357.358067491482
 21
1029.81319236936
 31
0.0
 11
1357.433311713137
 21
1029.825941686916
 31
0.0
 11
1357.496178835891
 21
1029.836806353134
 31
0.0
 11
1357.546686919902
 21
1029.845775077591
 31
0.0
 11
1357.585099025808
 21
1029.852879613924
 31
0.0
 11
1357.606201514783
 21
1029.857016496341
 31
0.0
 11
1357.620927530646
 21
1029.860163434403
 31
0.0
 11
1357.625244098849
 21
1029.861262223705
 31
0.0
 11
1357.632230117092
 21
1029.863627728605
 31
0.0
  0
SPLINE
  5
204
330
1F
100
AcDbEntity
  8
0
  6
Continuous
 62
     7
100
AcDbSpline
210
0.0
220
0.0
230
1.0
 70
     8
 71
     3
 72
    11
 73
     7
 74
     5
 42
0.0000000001
 43
0.0000000001
 44
0.00000001
 40
0.0
 40
0.0
 40
0.0
 40
0.0
 40
0.0112384298992931
 40
0.0253398878488228
 40
0.0306968255005638
 40
0.0416806665959938
 40
0.0416806665959938
 40
0.0416806665959938
 40
0.0416806665959938
 10
1356.989301173842
 20
994.29544698887
 30
0.0
 10
1356.988587798966
 20
994.2917693816507
 30
0.0
 10
1356.986979314551
 20
994.2834772843271
 30
0.0
 10
1356.984946443553
 20
994.2734488993473
 30
0.0
 10
1356.982931633024
 20
994.263503516315
 30
0.0
 10
1356.981819512849
 20
994.2581713120594
 30
0.0
 10
1356.981071974957
 20
994.2545871447968
 30
0.0
 11
1356.989301173842
 21
994.29544698887
 31
0.0
 11
1356.987147353471
 21
994.2844168771567
 31
0.0
 11
1356.984367748196
 21
994.2705920838193
 31
0.0
 11
1356.983300758267
 21
994.2653424825492
 31
0.0
 11
1356.981071974957
 21
994.2545871447968
 31
0.0
  0
SPLINE
  5
205
330
1F
100
AcDbEntity
  8
0
  6
Continuous
 62
     7
100
AcDbSpline
210
0.0
220
0.0
230
1.0
 70
     8
 71
     3
 72
    11
 73
     7
 74
     5
 42
0.0000000001
 43
0.0000000001
 44
0.00000001
 40
0.0
 40
0.0
 40
0.0
 40
0.0
 40
0.0102137168044596
 40
0.0143335232852031
 40
0.0312848852888837
 40
0.0422961334969468
 40
0.0422961334969468
 40
0.0422961334969468
 40
0.0422961334969468
 10
1356.981060188494
 20
1033.517450341093
 30
0.0
 10
1356.981757298995
 20
1033.514117887219
 30
0.0
 10
1356.982735596101
 20
1033.509441254206
 30
0.0
 10
1356.984807939058
 20
1033.499220937102
 30
0.0
 10
1356.986937356992
 20
1033.488740838621
 30
0.0
 10
1356.988711962087
 20
1033.479590426762
 30
0.0
 10
1356.989410774431
 20
1033.475987134529
 30
0.0
 11
1356.981060188494
 21
1033.517450341093
 31
0.0
 11
1356.983136881272
 21
1033.507449973197
 31
0.0
 11
1356.983958070229
 21
1033.5034128388
 31
0.0
 11
1356.987301720047
 21
1033.486794515188
 31
0.0
 11
1356.989410774431
 21
1033.475987134529
 31
0.0
  0
SPLINE
  5
206
330
1F
100
AcDbEntity
  8
0
  6
Continuous
 62
     2
100
AcDbSpline
210
0.0
220
0.0
230
1.0
 70
     8
 71
     3
 72
    34
 73
    30
 74
    28
 42
0.0000000001
 43
0.0000000001
 44
0.00000001
 40
0.0
 40
0.0
 40
0.0
 40
0.0
 40
0.4701034028669109
 40
0.9057005976582113
 40
1.303986990813469
 40
1.662156600360857
 40
1.977402206967747
 40
2.246915488564203
 40
2.467887145597853
 40
2.881899746866657
 40
3.261225606458866
 40
3.604537404580926
 40
3.910506652885392
 40
4.177803768211275
 40
4.405098142885348
 40
4.591058214842295
 40
4.677535590615782
 40
4.808012090138044
 40
4.97387309842371
 40
5.166504741204389
 40
5.377294232009014
 40
5.59763043362243
 40
5.818904831048825
 40
6.032513343916737
 40
6.220452207883825
 40
6.365143687433801
 40
6.467664653091113
 40
6.529169084438893
 40
6.551437497577478
 40
6.551437497577478
 40
6.551437497577478
 40
6.551437497577478
 10
1354.772219013696
 20
1029.40458212306
 30
0.0
 10
1354.761504334228
 20
1029.560916622778
 30
0.0
 10
1354.740861446857
 20
1029.862110464317
 30
0.0
 10
1354.709591885237
 20
1030.295647399803
 30
0.0
 10
1354.680054733771
 20
1030.691899427787
 30
0.0
 10
1354.65262281681
 20
1031.048078849831
 30
0.0
 10
1354.627798840388
 20
1031.361406746343
 30
0.0
 10
1354.606053549887
 20
1031.629102009895
 30
0.0
 10
1354.58113365171
 20
1031.929569657565
 30
0.0
 10
1354.552466018358
 20
1032.266455994236
 30
0.0
 10
1354.519263653263
 20
1032.643882296368
 30
0.0
 10
1354.488289987129
 20
1032.985349774488
 30
0.0
 10
1354.459902307161
 20
1033.289554490588
 30
0.0
 10
1354.43445667477
 20
1033.555192369595
 30
0.0
 10
1354.41231697987
 20
1033.780960122544
 30
0.0
 10
1354.395709340871
 20
1033.946707540034
 30
0.0
 10
1354.38215816649
 20
1034.080326802335
 30
0.0
 10
1354.369118655557
 20
1034.207263848584
 30
0.0
 10
1354.35217204726
 20
1034.369370239199
 30
0.0
 10
1354.332015579808
 20
1034.558057813183
 30
0.0
 10
1354.30934078619
 20
1034.764736297763
 30
0.0
 10
1354.284863576077
 20
1034.980825083812
 30
0.0
 10
1354.259219841169
 20
1035.197709265497
 30
0.0
 10
1354.233747354155
 20
1035.403792360398
 30
0.0
 10
1354.209304950318
 20
1035.58410205153
 30
0.0
 10
1354.189498671268
 20
1035.728114073454
 30
0.0
 10
1354.16994663284
 20
1035.828553013604
 30
0.0
 10
1354.161827948646
 20
1035.891262197272
 30
0.0
 10
1354.148550059682
 20
1035.915959689374
 30
0.0
 10
1354.145020544612
 20
1035.922524751848
 30
0.0
 11
1354.772219013696
 21
1029.40458212306
 31
0.0
 11
1354.739785146692
 21
1029.873565335615
 31
0.0
 11
1354.70851549831
 21
1030.308038723983
 31
0.0
 11
1354.678889121346
 21
1030.705221715513
 31
0.0
 11
1354.651385068601
 21
1031.062333737553
 31
0.0
 11
1354.626482392874
 21
1031.376594217453
 31
0.0
 11
1354.604660146962
 21
1031.64522258256
 31
0.0
 11
1354.586397383665
 21
1031.865438260224
 31
0.0
 11
1354.551280940057
 21
1032.277958889281
 31
0.0
 11
1354.518032147678
 21
1032.655824772315
 31
0.0
 11
1354.487009564175
 21
1032.997732055131
 31
0.0
 11
1354.458571747196
 21
1033.302376883535
 31
0.0
 11
1354.433077254385
 21
1033.568455403333
 31
0.0
 11
1354.410884643389
 21
1033.794663760331
 31
0.0
 11
1354.392352471855
 21
1033.979698100334
 31
0.0
 11
1354.383623189257
 21
1034.065733768205
 31
0.0
 11
1354.37028971044
 21
1034.195527201283
 31
0.0
 11
1354.353042383738
 21
1034.360489026537
 31
0.0
 11
1354.332571557481
 21
1034.552029870935
 31
0.0
 11
1354.309567580001
 21
1034.761560361446
 31
0.0
 11
1354.284720799629
 21
1034.980491125037
 31
0.0
 11
1354.258721564697
 21
1035.200232788678
 31
0.0
 11
1354.232260223537
 21
1035.412195979335
 31
0.0
 11
1354.207288101533
 21
1035.59846838661
 31
0.0
 11
1354.186070347399
 21
1035.741595711617
 31
0.0
 11
1354.168614686375
 21
1035.842619710239
 31
0.0
 11
1354.1549288437
 21
1035.902582138356
 31
0.0
 11
1354.145020544612
 21
1035.922524751848
 31
0.0
  0
SPLINE
  5
207
330
1F
100
AcDbEntity
  8
0
  6
Continuous
 62
     2
100
AcDbSpline
210
0.0
220
0.0
230
1.0
 70
     8
 71
     3
 72
    11
 73
     7
 74
     5
 42
0.0000000001
 43
0.0000000001
 44
0.00000001
 40
0.0
 40
0.0
 40
0.0
 40
0.0
 40
17.02063512226277
 40
34.04127024452554
 40
52.75947021766722
 40
82.26597022317326
 40
82.26597022317326
 40
82.26597022317326
 40
82.26597022317326
 10
1098.09929364861
 20
1033.517450341091
 30
0.0
 10
1103.772838689422
 20
1033.517450763099
 30
0.0
 10
1115.119928771047
 20
1033.517451607115
 30
0.0
 10
1132.706418842702
 20
1033.517427919789
 30
0.0
 10
1154.454863880838
 20
1033.517528435596
 30
0.0
 10
1170.52976385001
 20
1033.51847022297
 30
0.0
 10
1180.365263837338
 20
1033.519046459819
 30
0.0
 11
1098.09929364861
 21
1033.517450341091
 31
0.0
 11
1115.119928770873
 21
1033.517447575249
 31
0.0
 11
1132.140563893135
 21
1033.517444809406
 31
0.0
 11
1150.858763865233
 21
1033.517642509197
 31
0.0
 11
1180.365263837338
 21
1033.519046459819
 31
0.0
  0
SPLINE
  5
208
330
1F
100
AcDbEntity
  8
0
  6
Continuous
 62
     2
100
AcDbSpline
210
0.0
220
0.0
230
1.0
 70
     8
 71
     3
 72
    18
 73
    14
 74
    12
 42
0.0000000001
 43
0.0000000001
 44
0.00000001
 40
0.0
 40
0.0
 40
0.0
 40
0.0
 40
0.457836073900272
 40
0.9069817650340165
 40
1.191202982590129
 40
1.455825196835774
 40
1.694946013868335
 40
1.903504936796028
 40
2.077683594725322
 40
2.215091448394061
 40
2.314843444619167
 40
2.377550336644912
 40
2.405075816321464
 40
2.405075816321464
 40
2.405075816321464
 40
2.405075816321464
 10
1098.09929364861
 20
1033.517450341091
 30
0.0
 10
1098.099381946528
 20
1033.670062341534
 30
0.0
 10
1098.099556866342
 20
1033.972389548623
 30
0.0
 10
1098.099626383483
 20
1034.369457212886
 30
0.0
 10
1098.099627794527
 20
1034.702120252854
 30
0.0
 10
1098.099598379484
 20
1034.964775003979
 30
0.0
 10
1098.099559090636
 20
1035.202208977039
 30
0.0
 10
1098.099521697093
 20
1035.409495131765
 30
0.0
 10
1098.099521470692
 20
1035.582876872985
 30
0.0
 10
1098.099524341075
 20
1035.71998989428
 30
0.0
 10
1098.099663168541
 20
1035.819945023522
 30
0.0
 10
1098.099689246834
 20
1035.883273849117
 30
0.0
 10
1098.099980138956
 20
1035.913349992689
 30
0.0
 10
1098.100068875903
 20
1035.922524751847
 30
0.0
 11
1098.09929364861
 21
1033.517450341091
 31
0.0
 11
1098.099527457764
 21
1033.97528635529
 31
0.0
 11
1098.099620344085
 21
1034.424432036819
 31
0.0
 11
1098.099622119643
 21
1034.70865325437
 31
0.0
 11
1098.099594949369
 21
1034.97327546722
 31
0.0
 11
1098.09955676958
 21
1035.212396281205
 31
0.0
 11
1098.099526414064
 21
1035.420955201924
 31
0.0
 11
1098.099522176508
 21
1035.595133859801
 31
0.0
 11
1098.099560906063
 21
1035.732541708012
 31
0.0
 11
1098.099660370352
 21
1035.832293654648
 31
0.0
 11
1098.099828581787
 21
1035.89500032106
 31
0.0
 11
1098.100068875903
 21
1035.922524751847
 31
0.0
  0
SPLINE
  5
209
330
1F
100
AcDbEntity
  8
0
  6
Continuous
 62
     2
100
AcDbSpline
210
0.0
220
0.0
230
1.0
 70
     8
 71
     3
 72
    11
 73
     7
 74
     5
 42
0.0000000001
 43
0.0000000001
 44
0.00000001
 40
0.0
 40
0.0
 40
0.0
 40
0.0
 40
17.0202475086162
 40
34.04049501723217
 40
52.85879246814807
 40
82.465389919063
 40
82.465389919063
 40
82.465389919063
 40
82.465389919063
 10
1098.100068875903
 20
1035.922524751847
 30
0.0
 10
1103.773484712108
 20
1035.922524839602
 30
0.0
 10
1115.120316384519
 20
1035.922525015111
 30
0.0
 10
1132.739913873902
 20
1035.92252548712
 30
0.0
 10
1154.554961344051
 20
1035.922525031451
 30
0.0
 10
1170.696592977994
 20
1035.922524986323
 30
0.0
 10
1180.565458794966
 20
1035.922524958731
 30
0.0
 11
1098.100068875903
 21
1035.922524751847
 31
0.0
 11
1115.120316384519
 21
1035.922525047226
 31
0.0
 11
1132.140563893135
 21
1035.922525342605
 31
0.0
 11
1150.958861344051
 21
1035.922525150668
 31
0.0
 11
1180.565458794966
 21
1035.922524958731
 31
0.0
  0
SPLINE
  5
20A
330
1F
100
AcDbEntity
  8
0
  6
Continuous
 62
     2
100
AcDbSpline
210
0.0
220
0.0
230
1.0
 70
     8
 71
     3
 72
    15
 73
    11
 74
     9
 42
0.0000000001
 43
0.0000000001
 44
0.00000001
 40
0.0
 40
0.0
 40
0.0
 40
0.0
 40
0.8113307097805323
 40
1.390082030090666
 40
2.204918975440351
 40
2.783718986285205
 40
3.49653899538139
 40
4.187634544855901
 40
5.008017298321041
 40
5.596004399952677
 40
5.596004399952677
 40
5.596004399952677
 40
5.596004399952677
 10
1098.099294102847
 20
994.2545871447946
 30
0.0
 10
1097.828075036896
 20
994.2733791116832
 30
0.0
 10
1097.363385675023
 20
994.3055760631446
 30
0.0
 10
1096.665051411481
 20
994.5525364658707
 30
0.0
 10
1096.093481383894
 20
994.8889557508014
 30
0.0
 10
1095.571363508649
 20
995.3629505858229
 30
0.0
 10
1095.166775951285
 20
995.8916059824234
 30
0.0
 10
1094.837722520704
 20
996.5596652301488
 30
0.0
 10
1094.650880833807
 20
997.2423223134014
 30
0.0
 10
1094.632010808227
 20
997.7122345778806
 30
0.0
 10
1094.624132670529
 20
997.9084205083109
 30
0.0
 11
1098.099294102847
 21
994.2545871447946
 31
0.0
 11
1097.29395823151
 21
994.3530333482349
 31
0.0
 11
1096.746296518174
 21
994.5401689635144
 31
0.0
 11
1096.045053003037
 21
994.955159059764
 31
0.0
 11
1095.615945020857
 21
995.3435863916851
 31
0.0
 11
1095.182654681719
 21
995.9096003909619
 31
0.0
 11
1094.87547352192
 21
996.5286745331841
 31
0.0
 11
1094.666324605952
 21
997.3219491345249
 31
0.0
 11
1094.624132670529
 21
997.9084205083109
 31
0.0
  0
SPLINE
  5
20B
330
1F
100
AcDbEntity
  8
0
  6
Continuous
 62
     2
100
AcDbSpline
210
0.0
220
0.0
230
1.0
 70
     8
 71
     3
 72
    15
 73
    11
 74
     9
 42
0.0000000001
 43
0.0000000001
 44
0.00000001
 40
0.0
 40
0.0
 40
0.0
 40
0.0
 40
1.169533161075645
 40
2.578455460224003
 40
4.083954147469721
 40
5.134604423787809
 40
6.355057951217779
 40
7.672950053903779
 40
9.208861155047082
 40
10.1903176931831
 40
10.1903176931831
 40
10.1903176931831
 40
10.1903176931831
 10
1098.100069435845
 20
991.849515802798
 30
0.0
 10
1097.709785468849
 20
991.8707418295938
 30
0.0
 10
1096.849331178853
 20
991.917538591337
 30
0.0
 10
1095.534352920155
 20
992.3247497364066
 30
0.0
 10
1094.374368545469
 20
992.9805481964595
 30
0.0
 10
1093.420085088995
 20
993.8097135223267
 30
0.0
 10
1092.661578659142
 20
994.7448428689713
 30
0.0
 10
1092.02800408656
 20
995.9543105974576
 30
0.0
 10
1091.674656294001
 20
997.2002648534575
 30
0.0
 10
1091.639599229244
 20
998.040048557076
 30
0.0
 10
1091.625931386344
 20
998.3674585045449
 30
0.0
 11
1098.100069435845
 21
991.849515802798
 31
0.0
 11
1096.935436117438
 21
991.9564599401413
 31
0.0
 11
1095.585498470435
 21
992.3598584952219
 31
0.0
 11
1094.276652793667
 21
993.1038002212357
 31
0.0
 11
1093.483085124398
 21
993.7923612987142
 31
0.0
 11
1092.71493591216
 21
994.7407565751444
 31
0.0
 11
1092.100478122158
 21
995.9066387384128
 31
0.0
 11
1091.696859746391
 21
997.3885682635112
 31
0.0
 11
1091.625931386344
 21
998.3674585045449
 31
0.0
  0
SPLINE
  5
20C
330
1F
100
AcDbEntity
  8
0
  6
Continuous
 62
     2
100
AcDbSpline
210
0.0
220
0.0
230
1.0
 70
     8
 71
     3
 72
    11
 73
     7
 74
     5
 42
0.0000000001
 43
0.0000000001
 44
0.00000001
 40
0.0
 40
0.0
 40
0.0
 40
0.0
 40
17.02063481693375
 40
34.04126963386683
 40
52.85995443064307
 40
82.4669392274179
 40
82.4669392274179
 40
82.4669392274179
 40
82.4669392274179
 10
1098.099294102847
 20
994.2545871447946
 30
0.0
 10
1103.772839041824
 20
994.2545887224513
 30
0.0
 10
1115.119928919779
 20
994.2545918777649
 30
0.0
 10
1132.739913729993
 20
994.254600932738
 30
0.0
 10
1154.555348533487
 20
994.2545904777609
 30
0.0
 10
1170.697238398004
 20
994.2545891888774
 30
0.0
 10
1180.566233330262
 20
994.2545884008664
 30
0.0
 11
1098.099294102847
 21
994.2545871447946
 31
0.0
 11
1115.11992891978
 21
994.254592546764
 31
0.0
 11
1132.140563736712
 21
994.2545979487334
 31
0.0
 11
1150.959248533488
 21
994.2545931748
 31
0.0
 11
1180.566233330262
 21
994.2545884008664
 31
0.0
  0
SPLINE
  5
20D
330
1F
100
AcDbEntity
  8
0
  6
Continuous
 62
     2
100
AcDbSpline
210
0.0
220
0.0
230
1.0
 70
     8
 71
     3
 72
    11
 73
     7
 74
     5
 42
0.0000000001
 43
0.0000000001
 44
0.00000001
 40
0.0
 40
0.0
 40
0.0
 40
0.0
 40
17.02024715043399
 40
34.04049430086707
 40
52.85879147134598
 40
82.465388641823
 40
82.465388641823
 40
82.465388641823
 40
82.465388641823
 10
1098.100069435845
 20
991.849515802798
 30
0.0
 10
1103.773485152656
 20
991.8495156982594
 30
0.0
 10
1115.120316586278
 20
991.8495154891824
 30
0.0
 10
1132.739913743394
 20
991.8495148813963
 30
0.0
 10
1154.55496090719
 20
991.8495156051251
 30
0.0
 10
1170.696592354176
 20
991.8495156970605
 30
0.0
 10
1180.565458077668
 20
991.8495157532691
 30
0.0
 11
1098.100069435845
 21
991.849515802798
 31
0.0
 11
1115.120316586279
 21
991.8495154435998
 31
0.0
 11
1132.140563736712
 21
991.8495150844014
 31
0.0
 11
1150.958860907191
 21
991.8495154188353
 31
0.0
 11
1180.565458077668
 21
991.8495157532691
 31
0.0
  0
SPLINE
  5
20E
330
1F
100
AcDbEntity
  8
0
  6
Continuous
 62
     2
100
AcDbSpline
210
0.0
220
0.0
230
1.0
 70
     8
 71
     3
 72
    18
 73
    14
 74
    12
 42
0.0000000001
 43
0.0000000001
 44
0.00000001
 40
0.0
 40
0.0
 40
0.0
 40
0.0
 40
0.0275254380859447
 40
0.0902322332200781
 40
0.189984083069738
 40
0.3273917445535251
 40
0.5015701696406125
 40
0.7101288241204635
 40
0.949249342019984
 40
1.2138712311751
 40
1.498092102325191
 40
1.9472372442637
 40
2.405072748783406
 40
2.405072748783406
 40
2.405072748783406
 40
2.405072748783406
 10
1098.100069435845
 20
991.849515802798
 30
0.0
 10
1098.099980658813
 20
991.8586905477306
 30
0.0
 10
1098.099689635296
 20
991.8887666439553
 30
0.0
 10
1098.099663551443
 20
991.9520953752502
 30
0.0
 10
1098.099524670085
 20
992.0520503589389
 30
0.0
 10
1098.099521812536
 20
992.189163189938
 30
0.0
 10
1098.099522057016
 20
992.3625446999349
 30
0.0
 10
1098.099559489423
 20
992.5698305878684
 30
0.0
 10
1098.09959882125
 20
992.8072642633572
 30
0.0
 10
1098.099628277452
 20
993.0699186909368
 30
0.0
 10
1098.099626900816
 20
993.4025813240074
 30
0.0
 10
1098.099557393598
 20
993.7996484999534
 30
0.0
 10
1098.099382425258
 20
994.1019753341584
 30
0.0
 10
1098.099294102847
 20
994.2545871447946
 30
0.0
 11
1098.100069435845
 21
991.849515802798
 31
0.0
 11
1098.099829033458
 21
991.8770401910476
 31
0.0
 11
1098.099660750698
 21
991.9397467603758
 31
0.0
 11
1098.099561250693
 21
992.039498560601
 31
0.0
 11
1098.099522517421
 21
992.1769062166256
 31
0.0
 11
1098.09952677499
 21
992.3510846416607
 31
0.0
 11
1098.099557166246
 21
992.5596432939262
 31
0.0
 11
1098.099595388675
 21
992.7987638087709
 31
0.0
 11
1098.099622599278
 21
993.063385696527
 31
0.0
 11
1098.099620852851
 21
993.3476065676717
 31
0.0
 11
1098.099527971193
 21
993.7967517000064
 31
0.0
 11
1098.099294102847
 21
994.2545871447946
 31
0.0
  0
SPLINE
  5
20F
330
1F
100
AcDbEntity
  8
0
  6
Continuous
 62
     2
100
AcDbSpline
210
0.0
220
0.0
230
1.0
 70
     8
 71
     3
 72
    18
 73
    14
 74
    12
 42
0.0000000001
 43
0.0000000001
 44
0.00000001
 40
0.0
 40
0.0
 40
0.0
 40
0.0
 40
0.4578357642522882
 40
0.9069811561174337
 40
1.191202182965148
 40
1.455824215316664
 40
1.694944861046853
 40
1.903503625676199
 40
2.077682141665829
 40
2.215089874049768
 40
2.314841774758342
 40
2.377548602007834
 40
2.405074053688857
 40
2.405074053688857
 40
2.405074053688857
 40
2.405074053688857
 10
1180.566233330262
 20
994.2545884008664
 30
0.0
 10
1180.56614502126
 20
994.1019765036453
 30
0.0
 10
1180.565970079486
 20
993.7996494995398
 30
0.0
 10
1180.565900568166
 20
993.4025821018139
 30
0.0
 10
1180.565899174542
 20
993.0699192858024
 30
0.0
 10
1180.565928610192
 20
992.8072647159805
 30
0.0
 10
1180.565967920786
 20
992.5698309134253
 30
0.0
 10
1180.566005334419
 20
992.3625449158737
 30
0.0
 10
1180.566005571672
 20
992.18916331519
 30
0.0
 10
1180.566002709538
 20
992.0520504133992
 30
0.0
 10
1180.565863860471
 20
991.9520953781912
 30
0.0
 10
1180.565837781187
 20
991.8887666150713
 30
0.0
 10
1180.565546832018
 20
991.8586905029384
 30
0.0
 10
1180.565458077668
 20
991.8495157532691
 30
0.0
 11
1180.566233330262
 21
994.2545884008664
 31
0.0
 11
1180.56599949458
 21
993.7967526963289
 31
0.0
 11
1180.565906611827
 21
993.3476073140678
 31
0.0
 11
1180.565904851048
 21
993.0633862872255
 31
0.0
 11
1180.565932041583
 21
992.7987642562709
 31
0.0
 11
1180.565970243003
 21
992.5596436135922
 31
0.0
 11
1180.566000617259
 21
992.3510848511747
 31
0.0
 11
1180.566004866544
 21
992.1769063352369
 31
0.0
 11
1180.56596613797
 21
992.0394986083109
 31
0.0
 11
1180.565866660082
 21
991.9397467572046
 31
0.0
 11
1180.565698418729
 21
991.8770401556499
 31
0.0
 11
1180.565458077668
 21
991.8495157532691
 31
0.0
  0
SPLINE
  5
210
330
1F
100
AcDbEntity
  8
0
  6
Continuous
 62
     2
100
AcDbSpline
210
0.0
220
0.0
230
1.0
 70
     8
 71
     3
 72
    18
 73
    14
 74
    12
 42
0.0000000001
 43
0.0000000001
 44
0.00000001
 40
0.0
 40
0.0
 40
0.0
 40
0.0
 40
0.0275256399286745
 40
0.090232929749277
 40
0.1899855579019512
 40
0.3273942639847914
 40
0.5015739707580812
 40
0.710134105475204
 40
0.9492562560117332
 40
1.213879878993534
 40
1.498102532218298
 40
1.947250325325998
 40
2.40508831880082
 40
2.40508831880082
 40
2.40508831880082
 40
2.40508831880082
 10
1180.565458794966
 20
1035.922524958731
 30
0.0
 10
1180.565547539154
 20
1035.913350146219
 30
0.0
 10
1180.56583845512
 20
1035.883273816842
 30
0.0
 10
1180.56586454547
 20
1035.819944594507
 30
0.0
 10
1180.566003397167
 20
1035.719988837962
 30
0.0
 10
1180.566006286924
 20
1035.582874972248
 30
0.0
 10
1180.566006082364
 20
1035.409492193355
 30
0.0
 10
1180.56596870955
 20
1035.202204840577
 30
0.0
 10
1180.565929440969
 20
1034.964769549504
 30
0.0
 10
1180.565900045192
 20
1034.702113405741
 30
0.0
 10
1180.565901477524
 20
1034.36944871698
 30
0.0
 10
1180.565971016338
 20
1033.972379233649
 30
0.0
 10
1180.566145949556
 20
1033.670050686051
 30
0.0
 10
1180.566234254219
 20
1033.517438045754
 30
0.0
 11
1180.565458794966
 21
1035.922524958731
 31
0.0
 11
1180.565699109139
 21
1035.895000367861
 31
0.0
 11
1180.565867341728
 21
1035.83229330371
 31
0.0
 11
1180.565966827727
 21
1035.732540725167
 31
0.0
 11
1180.566005579067
 21
1035.595132024548
 31
0.0
 11
1180.566001363261
 21
1035.420952317826
 31
0.0
 11
1180.565971029109
 21
1035.212392185315
 31
0.0
 11
1180.5659328699
 21
1034.973270037823
 31
0.0
 11
1180.565905719197
 21
1034.708646416234
 31
0.0
 11
1180.565907513063
 21
1034.424423763015
 31
0.0
 11
1180.566000424028
 21
1033.975275979517
 31
0.0
 11
1180.566234254219
 21
1033.517438045754
 31
0.0
  0
SPLINE
  5
211
330
1F
100
AcDbEntity
  8
0
  6
DASHED
 62
     3
100
AcDbSpline
210
0.0
220
0.0
230
1.0
 70
     8
 71
     3
 72
    29
 73
    25
 74
    23
 42
0.0000000001
 43
0.0000000001
 44
0.00000001
 40
0.0
 40
0.0
 40
0.0
 40
0.0
 40
0.1255576724457558
 40
0.2510516103638397
 40
17.04567959547438
 40
33.84030758058582
 40
35.9431218674137
 40
38.06685089044657
 40
40.2324093858885
 40
42.46071208994447
 40
44.77267373881903
 40
47.18920906871693
 40
49.73123281584315
 40
52.41965971640155
 40
55.27540450659756
 40
58.31938192263527
 40
61.57250670071988
 40
65.05569357705593
 40
68.7898572878475
 40
72.79591256930047
 40
77.09477415761802
 40
81.70735678900559
 40
81.92613044780286
 40
82.06501453201406
 40
82.06501453201406
 40
82.06501453201406
 40
82.06501453201406
 10
1098.300265420781
 20
1033.519046141084
 30
0.0
 10
1098.342116435821
 20
1033.519405263022
 30
0.0
 10
1098.425797221841
 20
1033.520123324605
 30
0.0
 10
1104.107479340033
 20
1033.569231035018
 30
0.0
 10
1115.346036745515
 20
1033.497706202665
 30
0.0
 10
1127.243289678527
 20
1033.521859712173
 30
0.0
 10
1134.250349790898
 20
1033.521158495562
 30
0.0
 10
1136.381050146215
 20
1033.521215832301
 30
0.0
 10
1138.553580288291
 20
1033.52120003522
 30
0.0
 10
1140.78885455212
 20
1033.521204447679
 30
0.0
 10
1143.107787785088
 20
1033.52120319766
 30
0.0
 10
1145.531294692203
 20
1033.521203563958
 30
0.0
 10
1148.080290018444
 20
1033.521203422509
 30
0.0
 10
1150.775688497864
 20
1033.521203608708
 30
0.0
 10
1153.638404865787
 20
1033.521202961007
 30
0.0
 10
1156.689353864846
 20
1033.521205590119
 30
0.0
 10
1159.949450203936
 20
1033.521194750192
 30
0.0
 10
1163.439608732387
 20
1033.521239605075
 30
0.0
 10
1167.1807437177
 20
1033.52105365149
 30
0.0
 10
1171.193771840333
 20
1033.521825332637
 30
0.0
 10
1175.499599766634
 20
1033.518621876638
 30
0.0
 10
1178.543020056108
 20
1033.527381199818
 30
0.0
 10
1180.199755458385
 20
1033.520419457571
 30
0.0
 10
1180.318970698714
 20
1033.519430490982
 30
0.0
 10
1180.365263837338
 20
1033.519046459819
 30
0.0
 11
1098.300265420781
 21
1033.519046141084
 31
0.0
 11
1098.425818459717
 21
1033.520124808801
 31
0.0
 11
1098.551307761771
 21
1033.521203476518
 31
0.0
 11
1115.345935746882
 21
1033.521203476518
 31
0.0
 11
1132.140563731993
 21
1033.521203476518
 31
0.0
 11
1134.243378018821
 21
1033.521203476518
 31
0.0
 11
1136.367107041854
 21
1033.521203476518
 31
0.0
 11
1138.532665537296
 21
1033.521203476518
 31
0.0
 11
1140.760968241352
 21
1033.521203476518
 31
0.0
 11
1143.072929890226
 21
1033.521203476518
 31
0.0
 11
1145.489465220124
 21
1033.521203476518
 31
0.0
 11
1148.03148896725
 21
1033.521203476518
 31
0.0
 11
1150.719915867809
 21
1033.521203476518
 31
0.0
 11
1153.575660658005
 21
1033.521203476518
 31
0.0
 11
1156.619638074043
 21
1033.521203476518
 31
0.0
 11
1159.872762852127
 21
1033.521203476518
 31
0.0
 11
1163.355949728463
 21
1033.521203476518
 31
0.0
 11
1167.090113439255
 21
1033.521203476518
 31
0.0
 11
1171.096168720708
 21
1033.521203476518
 31
0.0
 11
1175.395030309025
 21
1033.521203476518
 31
0.0
 11
1180.007612940413
 21
1033.521203476518
 31
0.0
 11
1180.226383940784
 21
1033.520124968169
 31
0.0
 11
1180.365263837338
 21
1033.519046459819
 31
0.0
  0
SPLINE
  5
212
330
1F
100
AcDbEntity
  8
0
  6
Continuous
 62
     2
100
AcDbSpline
210
0.0
220
0.0
230
1.0
 70
     8
 71
     3
 72
     9
 73
     5
 74
     3
 42
0.0000000001
 43
0.0000000001
 44
0.00000001
 40
0.0
 40
0.0
 40
0.0
 40
0.0
 40
0.1004950634753266
 40
0.2009804730529582
 40
0.2009804730529582
 40
0.2009804730529582
 40
0.2009804730529582
 10
1180.365263837338
 20
1033.519046459819
 30
0.0
 10
1180.398758102288
 20
1033.518476809996
 30
0.0
 10
1180.465743414614
 20
1033.517337565072
 30
0.0
 10
1180.532738380363
 20
1033.517404553266
 30
0.0
 10
1180.566234254219
 20
1033.517438045754
 30
0.0
 11
1180.365263837338
 21
1033.519046459819
 31
0.0
 11
1180.465749045774
 21
1033.5176390976
 31
0.0
 11
1180.566234254219
 21
1033.517438045754
 31
0.0
  0
SPLINE
  5
213
330
1F
100
AcDbEntity
  8
0
  6
Continuous
 62
     2
100
AcDbSpline
210
0.0
220
0.0
230
1.0
 70
     8
 71
     3
 72
    19
 73
    15
 74
    13
 42
0.0000000001
 43
0.0000000001
 44
0.00000001
 40
0.0
 40
0.0
 40
0.0
 40
0.0
 40
0.5358658698897358
 40
1.083857691053745
 40
1.440985468523041
 40
1.779811906857656
 40
2.090796598396556
 40
2.365449846530955
 40
2.597215038426904
 40
2.782992221591782
 40
2.921808511441334
 40
3.017966167629428
 40
3.053200272251979
 40
3.082283931359829
 40
3.082283931359829
 40
3.082283931359829
 40
3.082283931359829
 10
1184.04138793198
 20
1029.863627761287
 30
0.0
 10
1184.220001455004
 20
1029.861069688657
 30
0.0
 10
1184.581270293969
 20
1029.855895657522
 30
0.0
 10
1185.061121890889
 20
1029.832024549469
 30
0.0
 10
1185.474596600673
 20
1029.800464169151
 30
0.0
 10
1185.808544904883
 20
1029.766319776674
 30
0.0
 10
1186.114100030819
 20
1029.725933370387
 30
0.0
 10
1186.382713745769
 20
1029.679758838721
 30
0.0
 10
1186.608048801785
 20
1029.629610855363
 30
0.0
 10
1186.78615708803
 20
1029.577200602023
 30
0.0
 10
1186.916208371793
 20
1029.523699698882
 30
0.0
 10
1186.992824993076
 20
1029.474831322294
 30
0.0
 10
1187.02911333193
 20
1029.434165483016
 30
0.0
 10
1187.036332313772
 20
1029.41379384636
 30
0.0
 10
1187.039596643793
 20
1029.40458205631
 30
0.0
 11
1184.04138793198
 21
1029.863627761287
 31
0.0
 11
1184.577144990606
 21
1029.852829398219
 31
0.0
 11
1185.124476762448
 21
1029.825941341484
 31
0.0
 11
1185.480543695663
 21
1029.798435187422
 31
0.0
 11
1185.81757964372
 21
1029.763648336007
 31
0.0
 11
1186.125794111338
 21
1029.722231910248
 31
0.0
 11
1186.396348504735
 21
1029.674959011836
 31
0.0
 11
1186.622324313903
 21
1029.623480493545
 31
0.0
 11
1186.800017031166
 21
1029.569272929345
 31
0.0
 11
1186.927298833061
 21
1029.513871618586
 31
0.0
 11
1187.00605915314
 21
1029.458707256678
 31
0.0
 11
1187.028305845826
 21
1029.43138461418
 31
0.0
 11
1187.039596643793
 21
1029.40458205631
 31
0.0
  0
SPLINE
  5
214
330
1F
100
AcDbEntity
  8
0
  6
Continuous
 62
     2
100
AcDbSpline
210
0.0
220
0.0
230
1.0
 70
     8
 71
     3
 72
    15
 73
    11
 74
     9
 42
0.0000000001
 43
0.0000000001
 44
0.00000001
 40
0.0
 40
0.0
 40
0.0
 40
0.0
 40
0.692244796283695
 40
1.408556947338923
 40
2.099601907764136
 40
2.812455769706982
 40
3.508829644303846
 40
4.206339520134039
 40
4.784920664005482
 40
5.596385604004658
 40
5.596385604004658
 40
5.596385604004658
 40
5.596385604004658
 10
1094.62413642723
 20
1029.863627728603
 30
0.0
 10
1094.635059660006
 20
1030.09474862879
 30
0.0
 10
1094.657285894852
 20
1030.565025836191
 30
0.0
 10
1094.853236156246
 20
1031.243498532823
 30
0.0
 10
1095.166792428556
 20
1031.880495653913
 30
0.0
 10
1095.59518966217
 20
1032.440325731169
 30
0.0
 10
1096.126576627465
 20
1032.906877823899
 30
0.0
 10
1096.702097369792
 20
1033.232424747911
 30
0.0
 10
1097.36338417237
 20
1033.466522415818
 30
0.0
 10
1097.828041434786
 20
1033.498678585975
 30
0.0
 10
1098.09929364861
 20
1033.517450341091
 30
0.0
 11
1094.62413642723
 21
1029.863627728603
 31
0.0
 11
1094.683288571181
 21
1030.553340626734
 31
0.0
 11
1094.875486776039
 21
1031.243386239573
 31
0.0
 11
1095.182644041835
 21
1031.862415763423
 31
0.0
 11
1095.615953426163
 21
1032.428457816578
 31
0.0
 11
1096.140048019171
 21
1032.887000541742
 31
0.0
 11
1096.746328845511
 21
1033.231882530969
 31
0.0
 11
1097.293826469187
 21
1033.41897206064
 31
0.0
 11
1098.09929364861
 21
1033.517450341091
 31
0.0
  0
SPLINE
  5
215
330
1F
100
AcDbEntity
  8
0
  6
Continuous
 62
     2
100
AcDbSpline
210
0.0
220
0.0
230
1.0
 70
     8
 71
     3
 72
    15
 73
    11
 74
     9
 42
0.0000000001
 43
0.0000000001
 44
0.00000001
 40
0.0
 40
0.0
 40
0.0
 40
0.0
 40
0.8116707418242043
 40
1.39004312862503
 40
2.204861638399437
 40
2.783695301727954
 40
3.496542530973728
 40
4.187589792442459
 40
5.00580130955403
 40
5.595973891377934
 40
5.595973891377934
 40
5.595973891377934
 40
5.595973891377934
 10
1180.566234254219
 20
1033.517438045754
 30
0.0
 10
1180.837567884844
 20
1033.498631137196
 30
0.0
 10
1181.302245776236
 20
1033.466422985952
 30
0.0
 10
1182.000545073341
 20
1033.219439226242
 30
0.0
 10
1182.572013878264
 20
1032.883088281463
 30
0.0
 10
1183.094145204532
 20
1032.40908663425
 30
0.0
 10
1183.498735120574
 20
1031.880427477762
 30
0.0
 10
1183.827459279818
 20
1031.213022452819
 30
0.0
 10
1184.014488642099
 20
1030.530466601813
 30
0.0
 10
1184.03344458791
 20
1030.060544868499
 30
0.0
 10
1184.04138793198
 20
1029.863627761287
 30
0.0
 11
1180.566234254219
 21
1033.517438045754
 31
0.0
 11
1181.371902474317
 21
1033.418908292594
 31
0.0
 11
1181.91919656178
 21
1033.231868725546
 31
0.0
 11
1182.620428440423
 21
1032.816895164646
 31
0.0
 11
1183.049563925882
 21
1032.428448070537
 31
0.0
 11
1183.482869171435
 21
1031.862411202109
 31
0.0
 11
1183.790027285463
 21
1031.243379530407
 31
0.0
 11
1183.998854947042
 21
1030.452265698842
 31
0.0
 11
1184.04138793198
 21
1029.863627761287
 31
0.0
  0
SPLINE
  5
216
330
1F
100
AcDbEntity
  8
0
  6
Continuous
 62
     2
100
AcDbSpline
210
0.0
220
0.0
230
1.0
 70
     8
 71
     3
 72
    15
 73
    11
 74
     9
 42
0.0000000001
 43
0.0000000001
 44
0.00000001
 40
0.0
 40
0.0
 40
0.0
 40
0.0
 40
0.980904489244906
 40
2.517403486075351
 40
3.979687329456618
 40
5.055470226733405
 40
6.567920098722295
 40
7.611612871691789
 40
8.563428663083519
 40
10.18931669075557
 40
10.18931669075557
 40
10.18931669075557
 40
10.18931669075557
 10
1091.625930753444
 20
1029.404582123058
 30
0.0
 10
1091.639602265076
 20
1029.731818762553
 30
0.0
 10
1091.67468897476
 20
1030.571642278571
 30
0.0
 10
1092.040802212273
 20
1031.864231272322
 30
0.0
 10
1092.689231338178
 20
1033.06912608094
 30
0.0
 10
1093.554833986679
 20
1034.112707252663
 30
0.0
 10
1094.506314559855
 20
1034.881884618364
 30
0.0
 10
1095.547317914137
 20
1035.421746966607
 30
0.0
 10
1096.694613451675
 20
1035.821900869894
 30
0.0
 10
1097.556459212788
 20
1035.88360490165
 30
0.0
 10
1098.100068875903
 20
1035.922524751847
 30
0.0
 11
1091.625930753444
 21
1029.404582123058
 31
0.0
 11
1091.696779669257
 21
1030.382924623489
 31
0.0
 11
1092.10049056106
 21
1031.865438260222
 31
0.0
 11
1092.796706085912
 21
1033.151345714734
 31
0.0
 11
1093.483103323193
 21
1033.979698100332
 31
0.0
 11
1094.660240969407
 21
1034.929356763823
 31
0.0
 11
1095.585530597748
 21
1035.412195979333
 31
0.0
 11
1096.487223643917
 21
1035.716995833718
 31
0.0
 11
1098.100068875903
 21
1035.922524751847
 31
0.0
  0
SPLINE
  5
217
330
1F
100
AcDbEntity
  8
0
  6
Continuous
 62
     2
100
AcDbSpline
210
0.0
220
0.0
230
1.0
 70
     8
 71
     3
 72
    15
 73
    11
 74
     9
 42
0.0000000001
 43
0.0000000001
 44
0.00000001
 40
0.0
 40
0.0
 40
0.0
 40
0.0
 40
1.173857773389199
 40
2.578433211862373
 40
4.083834966058214
 40
5.134591682850347
 40
6.652603306204899
 40
7.672479828917268
 40
9.208947548997761
 40
10.18987680008744
 40
10.18987680008744
 40
10.18987680008744
 40
10.18987680008744
 10
1180.565458794966
 20
1035.922524958731
 30
0.0
 10
1180.957192750636
 20
1035.901149694063
 30
0.0
 10
1181.817654609313
 20
1035.854197930757
 30
0.0
 10
1183.132364166937
 20
1035.44662198546
 30
0.0
 10
1184.291165613093
 20
1034.791412027011
 30
0.0
 10
1185.320437063246
 20
1033.897392179334
 30
0.0
 10
1186.060356593776
 20
1032.941009918959
 30
0.0
 10
1186.664369022499
 20
1031.721198009156
 30
0.0
 10
1186.991020908453
 20
1030.57153485342
 30
0.0
 10
1187.025976027344
 20
1029.7317951464
 30
0.0
 10
1187.039596643793
 20
1029.40458205631
 30
0.0
 11
1180.565458794966
 21
1035.922524958731
 31
0.0
 11
1181.734362703087
 21
1035.814795084857
 31
0.0
 11
1183.080001929171
 21
1035.412194494213
 31
0.0
 11
1184.388773154378
 21
1034.668317944237
 31
0.0
 11
1185.182428122075
 21
1033.979695064763
 31
0.0
 11
1186.110458766412
 21
1032.778396429198
 31
0.0
 11
1186.565039979396
 21
1031.865432003614
 31
0.0
 11
1186.968745010629
 21
1030.382949186646
 31
0.0
 11
1187.039596643793
 21
1029.40458205631
 31
0.0
  0
SPLINE
  5
218
330
1F
100
AcDbEntity
  8
0
  6
Continuous
 62
     2
100
AcDbSpline
210
0.0
220
0.0
230
1.0
 70
     8
 71
     3
 72
    19
 73
    15
 74
    13
 42
0.0000000001
 43
0.0000000001
 44
0.00000001
 40
0.0
 40
0.0
 40
0.0
 40
0.0
 40
0.5358645673314314
 40
1.083855023671898
 40
1.440981898655114
 40
1.779807468847615
 40
2.090791346513591
 40
2.365443843454865
 40
2.597208353765723
 40
2.782984883245383
 40
2.921800689312842
 40
3.017957581985366
 40
3.053190987867196
 40
3.082273874149226
 40
3.082273874149226
 40
3.082273874149226
 40
3.082273874149226
 10
1094.624132670529
 20
997.9084205083109
 30
0.0
 10
1094.445519576754
 20
997.9109782685972
 30
0.0
 10
1094.084251616929
 20
997.9161516678192
 30
0.0
 10
1093.604401182864
 20
997.9400222782342
 30
0.0
 10
1093.190927493221
 20
997.9715822894077
 30
0.0
 10
1092.856980024631
 20
998.0057263846458
 30
0.0
 10
1092.551425673913
 20
998.046112460042
 30
0.0
 10
1092.282812649457
 20
998.0922865741768
 30
0.0
 10
1092.057478188025
 20
998.1424340129331
 30
0.0
 10
1091.879370340185
 20
998.1948435716512
 30
0.0
 10
1091.749319392073
 20
998.248343596403
 30
0.0
 10
1091.672702958364
 20
998.297210979108
 30
0.0
 10
1091.63641468724
 20
998.3378758708266
 30
0.0
 10
1091.629195704649
 20
998.3582469848436
 30
0.0
 10
1091.625931386344
 20
998.3674585045449
 30
0.0
 11
1094.624132670529
 21
997.9084205083109
 31
0.0
 11
1094.088376897115
 21
997.9192179975768
 31
0.0
 11
1093.541046461415
 21
997.9461054369683
 31
0.0
 11
1093.184980408313
 21
997.973611266595
 31
0.0
 11
1092.847945300924
 21
998.0083978071506
 31
0.0
 11
1092.539731607691
 21
998.0498138846064
 31
0.0
 11
1092.269177900142
 21
998.0970863438978
 31
0.0
 11
1092.043202659949
 21
998.1485642912074
 31
0.0
 11
1091.865510398987
 21
998.2027711108881
 31
0.0
 11
1091.738228753879
 21
998.2581715696645
 31
0.0
 11
1091.659468618265
 21
998.313334864042
 31
0.0
 11
1091.637222105774
 21
998.3406567521907
 31
0.0
 11
1091.625931386344
 21
998.3674585045449
 31
0.0
  0
SPLINE
  5
219
330
1F
100
AcDbEntity
  8
0
  6
Continuous
 62
     2
100
AcDbSpline
210
0.0
220
0.0
230
1.0
 70
     8
 71
     3
 72
    11
 73
     7
 74
     5
 42
0.0000000001
 43
0.0000000001
 44
0.00000001
 40
0.0
 40
0.0
 40
0.0
 40
0.0
 40
1.700136055932377
 40
3.400272111863958
 40
5.100407417987644
 40
6.800542724112012
 40
6.800542724112012
 40
6.800542724112012
 40
6.800542724112012
 10
1091.658468938223
 20
1010.485716660424
 30
0.0
 10
1091.658468956754
 20
1011.052428679068
 30
0.0
 10
1091.658468993816
 20
1012.185852716356
 30
0.0
 10
1091.658469110238
 20
1013.885988522352
 30
0.0
 10
1091.658468983341
 20
1015.586124078412
 30
0.0
 10
1091.658468939296
 20
1016.719547615828
 30
0.0
 10
1091.658468917274
 20
1017.286259384536
 30
0.0
 11
1091.658468938223
 21
1010.485716660424
 31
0.0
 11
1091.658469003954
 21
1012.185852716356
 31
0.0
 11
1091.658469069685
 21
1013.885988772288
 31
0.0
 11
1091.658468993479
 21
1015.586124078412
 31
0.0
 11
1091.658468917274
 21
1017.286259384536
 31
0.0
  0
SPLINE
  5
21A
330
1F
100
AcDbEntity
  8
0
  6
Continuous
 62
     2
100
AcDbSpline
210
0.0
220
0.0
230
1.0
 70
     8
 71
     3
 72
    11
 73
     7
 74
     5
 42
0.0000000001
 43
0.0000000001
 44
0.00000001
 40
0.0
 40
0.0
 40
0.0
 40
0.0
 40
1.699999626052394
 40
3.399999252105129
 40
5.099999626007536
 40
6.799999999909147
 40
6.799999999909147
 40
6.799999999909147
 40
6.799999999909147
 10
1094.656649202373
 20
1010.485989520191
 30
0.0
 10
1094.656648151122
 20
1011.052656062207
 30
0.0
 10
1094.656646048621
 20
1012.18598914624
 30
0.0
 10
1094.656639536923
 20
1013.885989021572
 30
0.0
 10
1094.656646457016
 20
1015.585989146185
 30
0.0
 10
1094.65664883178
 20
1016.719322728783
 30
0.0
 10
1094.656650019162
 20
1017.285989520082
 30
0.0
 11
1094.656649202373
 21
1010.485989520191
 31
0.0
 11
1094.656645488964
 21
1012.185989146239
 31
0.0
 11
1094.656641775555
 21
1013.885988772288
 31
0.0
 11
1094.656645897358
 21
1015.585989146185
 31
0.0
 11
1094.656650019162
 21
1017.285989520082
 31
0.0
  0
SPLINE
  5
21B
330
1F
100
AcDbEntity
  8
0
  6
Continuous
 62
     2
100
AcDbSpline
210
0.0
220
0.0
230
1.0
 70
     8
 71
     3
 72
    11
 73
     7
 74
     5
 42
0.0000000001
 43
0.0000000001
 44
0.00000001
 40
0.0
 40
0.0
 40
0.0
 40
0.0
 40
3.71760972404153
 40
6.273297985447577
 40
9.8362786870557
 40
12.57762433014875
 40
12.57762433014875
 40
12.57762433014875
 40
12.57762433014875
 10
1094.624132670529
 20
997.9084205083109
 30
0.0
 10
1094.63004191597
 20
999.1476099518201
 30
0.0
 10
1094.640013499938
 20
1001.238685997076
 30
0.0
 10
1094.649948841688
 20
1004.517431347514
 30
0.0
 10
1094.655701225059
 20
1007.470765329485
 30
0.0
 10
1094.65636191211
 20
1009.572207580132
 30
0.0
 10
1094.656649202373
 20
1010.485989520191
 30
0.0
 11
1094.624132670529
 21
997.9084205083109
 31
0.0
 11
1094.640583812609
 21
1001.625993832431
 31
0.0
 11
1094.64854623832
 21
1004.18166969006
 31
0.0
 11
1094.655138324537
 21
1007.744644293454
 31
0.0
 11
1094.656649202373
 21
1010.485989520191
 31
0.0
  0
SPLINE
  5
21C
330
1F
100
AcDbEntity
  8
0
  6
Continuous
 62
     2
100
AcDbSpline
210
0.0
220
0.0
230
1.0
 70
     8
 71
     3
 72
    11
 73
     7
 74
     5
 42
0.0000000001
 43
0.0000000001
 44
0.00000001
 40
0.0
 40
0.0
 40
0.0
 40
0.0
 40
2.780126928617553
 40
6.044139588655307
 40
8.923045705250473
 40
12.11831569908941
 40
12.11831569908941
 40
12.11831569908941
 40
12.11831569908941
 10
1091.625931386344
 20
998.3674585045449
 30
0.0
 10
1091.630605512004
 20
999.2941558285571
 30
0.0
 10
1091.640767302694
 20
1001.308843692305
 30
0.0
 10
1091.650612611051
 20
1004.283177348975
 30
0.0
 10
1091.657259031243
 20
1007.395900936304
 30
0.0
 10
1091.658051871289
 20
1009.420626539751
 30
0.0
 10
1091.658468938223
 20
1010.485716660424
 30
0.0
 11
1091.625931386344
 21
998.3674585045449
 31
0.0
 11
1091.639214750488
 21
1001.147553699221
 31
0.0
 11
1091.650358342585
 21
1004.41154733666
 31
0.0
 11
1091.656240796805
 21
1007.290447443454
 31
0.0
 11
1091.658468938223
 21
1010.485716660424
 31
0.0
  0
SPLINE
  5
21D
330
1F
100
AcDbEntity
  8
0
  6
Continuous
 62
     2
100
AcDbSpline
210
0.0
220
0.0
230
1.0
 70
     8
 71
     3
 72
    11
 73
     7
 74
     5
 42
0.0000000001
 43
0.0000000001
 44
0.00000001
 40
0.0
 40
0.0
 40
0.0
 40
0.0
 40
3.768257223580248
 40
6.273145480088731
 40
9.847776602031661
 40
12.57769350690016
 40
12.57769350690016
 40
12.57769350690016
 40
12.57769350690016
 10
1094.62413642723
 20
1029.863627728603
 30
0.0
 10
1094.630119026001
 20
1028.607555930915
 30
0.0
 10
1094.640078460885
 20
1026.516530649777
 30
0.0
 10
1094.649994206111
 20
1023.233952612338
 30
0.0
 10
1094.655708077908
 20
1020.297478022907
 30
0.0
 10
1094.656365395626
 20
1018.195961879801
 30
0.0
 10
1094.656650019162
 20
1017.285989520082
 30
0.0
 11
1094.62413642723
 21
1029.863627728603
 31
0.0
 11
1094.64076969914
 21
1026.09540721524
 31
0.0
 11
1094.648547297096
 21
1023.590531033357
 31
0.0
 11
1094.655152689503
 21
1020.015906014316
 31
0.0
 11
1094.656650019162
 21
1017.285989520082
 31
0.0
  0
SPLINE
  5
21E
330
1F
100
AcDbEntity
  8
0
  6
Continuous
 62
     2
100
AcDbSpline
210
0.0
220
0.0
230
1.0
 70
     8
 71
     3
 72
    11
 73
     7
 74
     5
 42
0.0000000001
 43
0.0000000001
 44
0.00000001
 40
0.0
 40
0.0
 40
0.0
 40
0.0
 40
2.762774938607265
 40
6.043985155528813
 40
8.906337533266633
 40
12.11838028173267
 40
12.11838028173267
 40
12.11838028173267
 40
12.11838028173267
 10
1091.625930753444
 20
1029.404582123058
 30
0.0
 10
1091.630577699487
 20
1028.483668734963
 30
0.0
 10
1091.640743591941
 20
1026.469032374471
 30
0.0
 10
1091.650581438736
 20
1023.500268102669
 30
0.0
 10
1091.657251108679
 20
1020.381739037492
 30
0.0
 10
1091.658047695131
 20
1018.356940425694
 30
0.0
 10
1091.658468917274
 20
1017.286259384536
 30
0.0
 11
1091.625930753444
 21
1029.404582123058
 31
0.0
 11
1091.639142401004
 21
1026.641838773819
 31
0.0
 11
1091.650357696037
 21
1023.360647724095
 31
0.0
 11
1091.656217131625
 21
1020.498301343701
 31
0.0
 11
1091.658468917274
 21
1017.286259384536
 31
0.0
  0
SPLINE
  5
21F
330
1F
100
AcDbEntity
  8
0
  6
Continuous
 62
     2
100
AcDbSpline
210
0.0
220
0.0
230
1.0
 70
     8
 71
     3
 72
    11
 73
     7
 74
     5
 42
0.0000000001
 43
0.0000000001
 44
0.00000001
 40
0.0
 40
0.0
 40
0.0
 40
0.0
 40
2.851187178571899
 40
6.304468201308631
 40
8.574623100576098
 40
12.57769344798523
 40
12.57769344798523
 40
12.57769344798523
 40
12.57769344798523
 10
1184.0088833915
 20
1017.285989520082
 30
0.0
 10
1184.009194657512
 20
1018.236385312686
 30
0.0
 10
1184.009882920524
 20
1020.337874859974
 30
0.0
 10
1184.015516390714
 20
1023.196078297779
 30
0.0
 10
1184.025161791646
 20
1026.43823339294
 30
0.0
 10
1184.035067134702
 20
1028.529285585299
 30
0.0
 10
1184.04138793198
 20
1029.863627761287
 30
0.0
 11
1184.0088833915
 21
1017.285989520082
 31
0.0
 11
1184.010523577017
 21
1020.137176226884
 31
0.0
 11
1184.01699099933
 21
1023.590451193411
 31
0.0
 11
1184.023925828418
 21
1025.860595500457
 31
0.0
 11
1184.04138793198
 21
1029.863627761287
 31
0.0
  0
SPLINE
  5
220
330
1F
100
AcDbEntity
  8
0
  6
Continuous
 62
     2
100
AcDbSpline
210
0.0
220
0.0
230
1.0
 70
     8
 71
     3
 72
    15
 73
    11
 74
     9
 42
0.0000000001
 43
0.0000000001
 44
0.00000001
 40
0.0
 40
0.0
 40
0.0
 40
0.0
 40
0.8376100807702825
 40
1.408346308192396
 40
2.099411085558749
 40
2.81225259679413
 40
3.391077687421248
 40
4.205904991277683
 40
4.784587430505072
 40
5.595966197064929
 40
5.595966197064929
 40
5.595966197064929
 40
5.595966197064929
 10
1184.041387546917
 20
997.908417020763
 30
0.0
 10
1184.025515755588
 20
997.6284554668518
 30
0.0
 10
1183.998829139422
 20
997.1577318808563
 30
0.0
 10
1183.790680652051
 20
996.4849565073102
 30
0.0
 10
1183.498807701521
 20
995.8915241212428
 30
0.0
 10
1183.0941481699
 20
995.3629637256519
 30
0.0
 10
1182.572035252445
 20
994.888938953146
 30
0.0
 10
1182.00047291729
 20
994.5525408560464
 30
0.0
 10
1181.302151627857
 20
994.3055793103493
 30
0.0
 10
1180.837468743488
 20
994.2733819822317
 30
0.0
 10
1180.566233330262
 20
994.2545884008664
 30
0.0
 11
1184.041387546917
 21
997.908417020763
 31
0.0
 11
1183.953820617138
 21
997.0753968047915
 31
0.0
 11
1183.7900478206
 21
996.5286625801393
 31
0.0
 11
1183.482881127884
 21
995.9096156114832
 31
0.0
 11
1183.049578599207
 21
995.3435838643325
 31
0.0
 11
1182.620450123336
 21
994.9551418007808
 31
0.0
 11
1181.919211892664
 21
994.5401617061334
 31
0.0
 11
1181.371616253879
 21
994.3530457478232
 31
0.0
 11
1180.566233330262
 21
994.2545884008664
 31
0.0
  0
SPLINE
  5
221
330
1F
100
AcDbEntity
  8
0
  6
Continuous
 62
     2
100
AcDbSpline
210
0.0
220
0.0
230
1.0
 70
     8
 71
     3
 72
    11
 73
     7
 74
     5
 42
0.0000000001
 43
0.0000000001
 44
0.00000001
 40
0.0
 40
0.0
 40
0.0
 40
0.0
 40
2.642032892824228
 40
6.304368835756572
 40
9.03191016608144
 40
12.57762785323076
 40
12.57762785323076
 40
12.57762785323076
 40
12.57762785323076
 10
1184.008871850852
 20
1010.485989520191
 30
0.0
 10
1184.009136608447
 20
1009.605311835822
 30
0.0
 10
1184.009768368006
 20
1007.503855429751
 30
0.0
 10
1184.015572636346
 20
1004.493222836124
 30
0.0
 10
1184.025717219367
 20
1001.18137244324
 30
0.0
 10
1184.035728855667
 20
999.0903096232033
 30
0.0
 10
1184.041387546917
 20
997.908417020763
 30
0.0
 11
1184.008871850852
 21
1010.485989520191
 31
0.0
 11
1184.010266714647
 21
1007.843956995577
 31
0.0
 11
1184.016967642993
 21
1004.18162718295
 31
0.0
 11
1184.025563595595
 21
1001.454099397898
 31
0.0
 11
1184.041387546917
 21
997.908417020763
 31
0.0
  0
SPLINE
  5
222
330
1F
100
AcDbEntity
  8
0
  6
Continuous
 62
     2
100
AcDbSpline
210
0.0
220
0.0
230
1.0
 70
     8
 71
     3
 72
    11
 73
     7
 74
     5
 42
0.0000000001
 43
0.0000000001
 44
0.00000001
 40
0.0
 40
0.0
 40
0.0
 40
0.0
 40
1.700000374234895
 40
3.400000748470473
 40
5.100000374197557
 40
6.799999999924413
 40
6.799999999924413
 40
6.799999999924413
 40
6.799999999924413
 10
1184.0088833915
 20
1017.285989520082
 30
0.0
 10
1184.008883708846
 20
1016.719322728671
 30
0.0
 10
1184.008884343537
 20
1015.585989145849
 30
0.0
 10
1184.008889132775
 20
1013.885989021111
 30
0.0
 10
1184.008878573214
 20
1012.185989145903
 30
0.0
 10
1184.008874091639
 20
1011.052656062095
 30
0.0
 10
1184.008871850852
 20
1010.485989520191
 30
0.0
 11
1184.0088833915
 21
1017.285989520082
 31
0.0
 11
1184.00888498307
 21
1015.585989145848
 31
0.0
 11
1184.008886574641
 21
1013.885988771613
 31
0.0
 11
1184.008879212747
 21
1012.185989145902
 31
0.0
 11
1184.008871850852
 21
1010.485989520191
 31
0.0
  0
SPLINE
  5
223
330
1F
100
AcDbEntity
  8
0
  6
Continuous
 62
     2
100
AcDbSpline
210
0.0
220
0.0
230
1.0
 70
     8
 71
     3
 72
    11
 73
     7
 74
     5
 42
0.0000000001
 43
0.0000000001
 44
0.00000001
 40
0.0
 40
0.0
 40
0.0
 40
0.0
 40
1.700135305938602
 40
3.400270611876977
 40
5.100406668116428
 40
6.800542724355992
 40
6.800542724355992
 40
6.800542724355992
 40
6.800542724355992
 10
1187.007058389786
 20
1017.28625938349
 30
0.0
 10
1187.007058389449
 20
1016.719547614844
 30
0.0
 10
1187.007058388775
 20
1015.586124077552
 30
0.0
 10
1187.007058314585
 20
1013.885988521513
 30
0.0
 10
1187.007058533111
 20
1012.185852715373
 30
0.0
 10
1187.00705863001
 20
1011.05242867788
 30
0.0
 10
1187.007058678459
 20
1010.485716659134
 30
0.0
 11
1187.007058389786
 21
1017.28625938349
 31
0.0
 11
1187.007058376578
 21
1015.586124077551
 31
0.0
 11
1187.007058363371
 21
1013.885988771613
 31
0.0
 11
1187.007058520915
 21
1012.185852715374
 31
0.0
 11
1187.007058678459
 21
1010.485716659134
 31
0.0
  0
SPLINE
  5
224
330
1F
100
AcDbEntity
  8
0
  6
Continuous
 62
     2
100
AcDbSpline
210
0.0
220
0.0
230
1.0
 70
     8
 71
     3
 72
    11
 73
     7
 74
     5
 42
0.0000000001
 43
0.0000000001
 44
0.00000001
 40
0.0
 40
0.0
 40
0.0
 40
0.0
 40
3.244780340844186
 40
6.074216691839094
 40
9.337467705043448
 40
12.1183161195185
 40
12.1183161195185
 40
12.1183161195185
 40
12.1183161195185
 10
1187.007058678459
 20
1010.485716659134
 30
0.0
 10
1187.007488094845
 20
1009.404123082858
 30
0.0
 10
1187.008291960718
 20
1007.379383943476
 30
0.0
 10
1187.014970142852
 20
1004.26690081206
 30
0.0
 10
1187.024759619342
 20
1001.309070374027
 30
0.0
 10
1187.034921219796
 20
999.2943958966605
 30
0.0
 10
1187.039596502003
 20
998.3674580801821
 30
0.0
 11
1187.007058678459
 21
1010.485716659134
 31
0.0
 11
1187.009357217709
 21
1007.24093713241
 31
0.0
 11
1187.01516972912
 21
1004.411506751743
 31
0.0
 11
1187.026310204479
 21
1001.148274754936
 31
0.0
 11
1187.039596502003
 21
998.3674580801821
 31
0.0
  0
SPLINE
  5
225
330
1F
100
AcDbEntity
  8
0
  6
Continuous
 62
     2
100
AcDbSpline
210
0.0
220
0.0
230
1.0
 70
     8
 71
     3
 72
    19
 73
    15
 74
    13
 42
0.0000000001
 43
0.0000000001
 44
0.00000001
 40
0.0
 40
0.0
 40
0.0
 40
0.0
 40
0.0290823187122607
 40
0.0643151409717168
 40
0.1604722798193351
 40
0.2992889776144516
 40
0.4850659861568387
 40
0.7168311105735194
 40
0.9914843312621959
 40
1.302469031311327
 40
1.641295505058878
 40
1.998423359291966
 40
2.546415393700952
 40
3.082281643788752
 40
3.082281643788752
 40
3.082281643788752
 40
3.082281643788752
 10
1187.039596502003
 20
998.3674580801821
 30
0.0
 10
1187.036332214284
 20
998.3582467532019
 30
0.0
 10
1187.029113287663
 20
998.3378760324513
 30
0.0
 10
1186.992825194359
 20
998.2972114164203
 30
0.0
 10
1186.916208590409
 20
998.2483439500327
 30
0.0
 10
1186.786157218191
 20
998.1948435690093
 30
0.0
 10
1186.608048846579
 20
998.1424334474922
 30
0.0
 10
1186.382713919533
 20
998.0922853175151
 30
0.0
 10
1186.114100298451
 20
998.0461104167626
 30
0.0
 10
1185.808545225396
 20
998.0057235645997
 30
0.0
 10
1185.474596917486
 20
997.9715787931138
 30
0.0
 10
1185.06112211223
 20
997.9400182248773
 30
0.0
 10
1184.581270263265
 20
997.9161473961905
 30
0.0
 10
1184.220001206536
 20
997.9109745218711
 30
0.0
 10
1184.041387546917
 20
997.908417020763
 30
0.0
 11
1187.039596502003
 21
998.3674580801821
 31
0.0
 11
1187.028305918759
 21
998.3406568863338
 31
0.0
 11
1187.00605974999
 21
998.3133354709337
 31
0.0
 11
1186.927299422417
 21
998.2581720215134
 31
0.0
 11
1186.800017018972
 21
998.2027710706188
 31
0.0
 11
1186.622324405963
 21
998.1485637631309
 31
0.0
 11
1186.396348691285
 21
998.0970851338599
 31
0.0
 11
1186.125794385727
 21
998.0498118921844
 31
0.0
 11
1185.81757996735
 21
998.0083950360815
 31
0.0
 11
1185.480544021256
 21
997.973607820722
 31
0.0
 11
1185.124477022936
 21
997.9461015127829
 31
0.0
 11
1184.577145015682
 21
997.9192139020438
 31
0.0
 11
1184.041387546917
 21
997.908417020763
 31
0.0
  0
SPLINE
  5
226
330
1F
100
AcDbEntity
  8
0
  6
Continuous
 62
     2
100
AcDbSpline
210
0.0
220
0.0
230
1.0
 70
     8
 71
     3
 72
    15
 73
    11
 74
     9
 42
0.0000000001
 43
0.0000000001
 44
0.00000001
 40
0.0
 40
0.0
 40
0.0
 40
0.0
 40
0.9811411845130927
 40
2.517390137884909
 40
3.537308371445706
 40
5.055280651711536
 40
6.329558748362347
 40
7.611836154569051
 40
8.563354477057704
 40
10.18955237958155
 40
10.18955237958155
 40
10.18955237958155
 40
10.18955237958155
 10
1187.039596502003
 20
998.3674580801821
 30
0.0
 10
1187.02596889003
 20
998.0401732530324
 30
0.0
 10
1186.991003467596
 20
997.200433153288
 30
0.0
 10
1186.664354415105
 20
996.0507882309072
 30
0.0
 10
1186.060291366156
 20
994.8309761600491
 30
0.0
 10
1185.274674278472
 20
993.8153374228384
 30
0.0
 10
1184.227502867628
 20
992.9368630729108
 30
0.0
 10
1183.193710178753
 20
992.3763223123866
 30
0.0
 10
1181.971099485665
 20
991.9503187851228
 30
0.0
 10
1181.10920160811
 20
991.888509337342
 30
0.0
 10
1180.565458077668
 20
991.8495157532691
 30
0.0
 11
1187.039596502003
 21
998.3674580801821
 31
0.0
 11
1186.96871307464
 21
997.3888807640374
 31
0.0
 11
1186.565041112759
 21
995.906615675085
 31
0.0
 11
1186.110439896654
 21
994.993614614042
 31
0.0
 11
1185.182430454086
 21
993.7923493152175
 31
0.0
 11
1184.205623149388
 21
992.9740387646971
 31
0.0
 11
1183.080008908581
 21
992.3598499278071
 31
0.0
 11
1182.178606006432
 21
992.0551206610315
 31
0.0
 11
1180.565458077668
 21
991.8495157532691
 31
0.0
  0
SPLINE
  5
227
330
1F
100
AcDbEntity
  8
0
  6
Continuous
 62
     2
100
AcDbSpline
210
0.0
220
0.0
230
1.0
 70
     8
 71
     3
 72
    16
 73
    12
 74
    10
 42
0.0000000001
 43
0.0000000001
 44
0.00000001
 40
0.0
 40
0.0
 40
0.0
 40
0.0
 40
0.6050158270451668
 40
1.067745767578896
 40
1.354528033516825
 40
2.063736221265275
 40
2.495870636044742
 40
2.932083466825345
 40
3.267501476550784
 40
3.459010687737212
 40
3.615363058426349
 40
3.615363058426349
 40
3.615363058426349
 40
3.615363058426349
 10
1180.58423425422
 20
860.5632547098476
 30
0.0
 10
1180.785915186373
 20
860.561138410865
 30
0.0
 10
1181.141846307646
 20
860.5574035180232
 30
0.0
 10
1181.5928609216
 20
860.533570500953
 30
0.0
 10
1182.07762660124
 20
860.496389765414
 30
0.0
 10
1182.551387966544
 20
860.4433143697461
 30
0.0
 10
1183.068987759573
 20
860.3547505116287
 30
0.0
 10
1183.463466397722
 20
860.2665448605981
 30
0.0
 10
1183.760753849147
 20
860.1593722473146
 30
0.0
 10
1183.980791104923
 20
860.0660441067521
 30
0.0
 10
1184.03501573804
 20
859.9598279460531
 30
0.0
 10
1184.05938793198
 20
859.9120872658627
 30
0.0
 11
1180.58423425422
 21
860.5632547098476
 31
0.0
 11
1181.189146744681
 21
860.5520730346832
 31
0.0
 11
1181.651261465864
 21
860.5282196841422
 31
0.0
 11
1181.937196561781
 21
860.5061926784548
 31
0.0
 11
1182.641701939275
 21
860.4246547936917
 31
0.0
 11
1183.067563925882
 21
860.3512945810429
 31
0.0
 11
1183.49180227081
 21
860.2497886185048
 31
0.0
 11
1183.808027285464
 21
860.1379540024195
 31
0.0
 11
1183.974595034292
 21
860.0434502299045
 31
0.0
 11
1184.05938793198
 21
859.9120872658627
 31
0.0
  0
SPLINE
  5
228
330
1F
100
AcDbEntity
  8
0
  6
Continuous
 62
     2
100
AcDbSpline
210
0.0
220
0.0
230
1.0
 70
     8
 71
     3
 72
    11
 73
     7
 74
     5
 42
0.0000000001
 43
0.0000000001
 44
0.00000001
 40
0.0
 40
0.0
 40
0.0
 40
0.0
 40
0.1210164252441078
 40
0.2420328504882465
 40
0.5445721658570044
 40
0.9676149843933828
 40
0.9676149843933828
 40
0.9676149843933828
 40
0.9676149843933828
 10
1184.026883275132
 20
858.9450183928494
 30
0.0
 10
1184.028238692634
 20
858.9853344232565
 30
0.0
 10
1184.030949527637
 20
859.0659664840703
 30
0.0
 10
1184.037054169424
 20
859.2473878610181
 30
0.0
 10
1184.046522966377
 20
859.5294284803165
 30
0.0
 10
1184.054649717563
 20
859.7711526197617
 30
0.0
 10
1184.05938793198
 20
859.9120872658627
 30
0.0
 11
1184.026883275132
 21
858.9450183928494
 31
0.0
 11
1184.030950114595
 21
859.0659664643332
 31
0.0
 11
1184.035018421597
 21
859.1869144864626
 31
0.0
 11
1184.045177185958
 21
859.4892831965674
 31
0.0
 11
1184.05938793198
 21
859.9120872658627
 31
0.0
  0
SPLINE
  5
229
330
1F
100
AcDbEntity
  8
0
  6
Continuous
 62
     2
100
AcDbSpline
210
0.0
220
0.0
230
1.0
 70
     8
 71
     3
 72
    15
 73
    11
 74
     9
 42
0.0000000001
 43
0.0000000001
 44
0.00000001
 40
0.0
 40
0.0
 40
0.0
 40
0.0
 40
0.5378175539235496
 40
1.105780237987414
 40
1.695342123225316
 40
2.295476630379731
 40
2.894209665814115
 40
3.47990273125476
 40
4.042366738244949
 40
4.574101089820456
 40
4.574101089820456
 40
4.574101089820456
 40
4.574101089820456
 10
1184.05938793198
 20
859.9120872658627
 30
0.0
 10
1184.238881892907
 20
859.9212671548058
 30
0.0
 10
1184.607930603539
 20
859.9401414732552
 30
0.0
 10
1185.155918429843
 20
860.0972823092496
 30
0.0
 10
1185.683304803815
 20
860.359377438844
 30
0.0
 10
1186.1575181894
 20
860.7275694617394
 30
0.0
 10
1186.546973714711
 20
861.1828446694803
 30
0.0
 10
1186.831053331265
 20
861.6946792933961
 30
0.0
 10
1187.009699132271
 20
862.2307889392403
 30
0.0
 10
1187.0419325563
 20
862.5950707998043
 30
0.0
 10
1187.057596643794
 20
862.772096452787
 30
0.0
 11
1184.05938793198
 21
859.9120872658627
 31
0.0
 11
1184.595119671584
 21
859.9594077105901
 31
0.0
 11
1185.142476762449
 21
860.1110052883042
 31
0.0
 11
1185.669937777484
 21
860.3743835223006
 31
0.0
 11
1186.143794111339
 21
860.7426519047926
 31
0.0
 11
1186.532986668264
 21
861.1976358620427
 31
0.0
 11
1186.818017031166
 21
861.7092940087863
 31
0.0
 11
1186.990737212174
 21
862.2445822472447
 31
0.0
 11
1187.057596643794
 21
862.772096452787
 31
0.0
  0
SPLINE
  5
22A
330
1F
100
AcDbEntity
  8
0
  6
Continuous
 62
     2
100
AcDbSpline
210
0.0
220
0.0
230
1.0
 70
     8
 71
     3
 72
    20
 73
    16
 74
    14
 42
0.0000000001
 43
0.0000000001
 44
0.00000001
 40
0.0
 40
0.0
 40
0.0
 40
0.0
 40
0.8149449503287347
 40
1.51626849846303
 40
2.088521924259316
 40
2.516195513980907
 40
3.644200699380927
 40
4.624855666355224
 40
5.192482020144039
 40
5.602614201836797
 40
5.873093393436316
 40
6.021506401577224
 40
6.292950397997822
 40
6.463557184380837
 40
6.542260264974995
 40
6.542260264974995
 40
6.542260264974995
 40
6.542260264974995
 10
1180.583458794966
 20
863.3993027576745
 30
0.0
 10
1180.855058393046
 20
863.3939955860665
 30
0.0
 10
1181.36039058094
 20
863.3841211802896
 30
0.0
 10
1182.056192011775
 20
863.3607625416356
 30
0.0
 10
1182.622772510905
 20
863.3367464690181
 30
0.0
 10
1183.331175243006
 20
863.3007461816328
 30
0.0
 10
1184.174927389538
 20
863.2465283032711
 30
0.0
 10
1185.063824919036
 20
863.1691800575676
 30
0.0
 10
1185.712462221759
 20
863.0959807004808
 30
0.0
 10
1186.124969212033
 20
863.0395943266012
 30
0.0
 10
1186.397160603132
 20
862.9942132546572
 30
0.0
 10
1186.624336355086
 20
862.9516957028673
 30
0.0
 10
1186.809536730747
 20
862.9002634510563
 30
0.0
 10
1186.990149849575
 20
862.8608211222133
 30
0.0
 10
1187.041413531144
 20
862.7933849563664
 30
0.0
 10
1187.057596643794
 20
862.772096452787
 30
0.0
 11
1180.583458794966
 21
863.3993027576745
 31
0.0
 11
1181.398205643729
 21
863.3813348836565
 31
0.0
 11
1182.099147061185
 21
863.3581864827765
 31
0.0
 11
1182.670880129082
 21
863.3337880728243
 31
0.0
 11
1183.098001929171
 21
863.3120701715891
 31
0.0
 11
1184.223627412252
 21
863.238837869102
 31
0.0
 11
1185.200428122075
 21
863.1519785717236
 31
0.0
 11
1185.764383284392
 21
863.0875250814229
 31
0.0
 11
1186.170590637421
 21
863.0309212581875
 31
0.0
 11
1186.437369697108
 21
862.9863350899178
 31
0.0
 11
1186.583039979397
 21
862.9579345645133
 31
0.0
 11
1186.846694686606
 21
862.8933742163147
 31
0.0
 11
1187.005538958818
 21
862.8311233308166
 31
0.0
 11
1187.057596643794
 21
862.772096452787
 31
0.0
  0
SPLINE
  5
22B
330
1F
100
AcDbEntity
  8
0
  6
Continuous
 62
     2
100
AcDbSpline
210
0.0
220
0.0
230
1.0
 70
     8
 71
     3
 72
    16
 73
    12
 74
    10
 42
0.0000000001
 43
0.0000000001
 44
0.00000001
 40
0.0
 40
0.0
 40
0.0
 40
0.0
 40
0.1559355507712642
 40
0.347878325793276
 40
0.6832968515991853
 40
1.119512506069518
 40
1.650840745721296
 40
2.260870092293819
 40
2.547816921092524
 40
3.010525662789751
 40
3.615400625820707
 40
3.615400625820707
 40
3.615400625820707
 40
3.615400625820707
 10
1094.64213642723
 20
859.9120872607982
 30
0.0
 10
1094.666401786789
 20
859.959721186442
 30
0.0
 10
1094.720535642835
 20
860.0659882321665
 30
0.0
 10
1094.940646619878
 20
860.1593216743205
 30
0.0
 10
1095.238053304148
 20
860.2665435747734
 30
0.0
 10
1095.664964283599
 20
860.3620439611481
 30
0.0
 10
1096.183073329305
 20
860.4473802177044
 30
0.0
 10
1096.65690495453
 20
860.498941577975
 30
0.0
 10
1097.108769366871
 20
860.5335749898525
 30
0.0
 10
1097.559781605176
 20
860.5574105773095
 30
0.0
 10
1097.915659322356
 20
860.5611426562614
 30
0.0
 10
1098.117293648611
 20
860.5632571893966
 30
0.0
 11
1094.64213642723
 21
859.9120872607982
 31
0.0
 11
1094.726571826544
 21
860.0431847792227
 31
0.0
 11
1094.89348677604
 21
860.1379551781766
 31
0.0
 11
1095.209712325514
 21
860.2497898298433
 31
0.0
 11
1095.633953426164
 21
860.351296409554
 31
0.0
 11
1096.158048019177
 21
860.4386723549069
 31
0.0
 11
1096.764328845511
 21
860.5061954124432
 31
0.0
 11
1097.050428167013
 21
860.5282331254311
 31
0.0
 11
1097.512521945421
 21
860.5520809680899
 31
0.0
 11
1098.117293648611
 21
860.5632571893966
 31
0.0
  0
SPLINE
  5
22C
330
1F
100
AcDbEntity
  8
0
  6
Continuous
 62
     2
100
AcDbSpline
210
0.0
220
0.0
230
1.0
 70
     8
 71
     3
 72
    15
 73
    11
 74
     9
 42
0.0000000001
 43
0.0000000001
 44
0.00000001
 40
0.0
 40
0.0
 40
0.0
 40
0.0
 40
0.5317343440408332
 40
1.094198408998828
 40
1.679891500321548
 40
2.278624456591239
 40
2.878758754214305
 40
3.468320344531509
 40
4.036282736347973
 40
4.574100100269527
 40
4.574100100269527
 40
4.574100100269527
 40
4.574100100269527
 10
1091.643930753444
 20
862.772098364194
 30
0.0
 10
1091.659594820836
 20
862.5950727141437
 30
0.0
 10
1091.691828205441
 20
862.2307908376615
 30
0.0
 10
1091.870473677192
 20
861.6946810770013
 30
0.0
 10
1092.154552813173
 20
861.182846193309
 30
0.0
 10
1092.544007764227
 20
860.7275706168987
 30
0.0
 10
1093.018220587307
 20
860.3593781804577
 30
0.0
 10
1093.545606486093
 20
860.0972826772755
 30
0.0
 10
1094.093593980047
 20
859.9401415650343
 30
0.0
 10
1094.46264252972
 20
859.921267181942
 30
0.0
 10
1094.64213642723
 20
859.9120872607982
 30
0.0
 11
1091.643930753444
 21
862.772098364194
 31
0.0
 11
1091.710790081045
 21
862.2445841530629
 31
0.0
 11
1091.883509966846
 21
861.70929575844
 31
0.0
 11
1092.168539878357
 21
861.1976373306123
 31
0.0
 11
1092.557731889249
 21
860.7426530104633
 31
0.0
 11
1093.031587659322
 21
860.3743842440005
 31
0.0
 11
1093.559048172319
 21
860.1110056647534
 31
0.0
 11
1094.106404889652
 21
859.9594078332765
 31
0.0
 11
1094.64213642723
 21
859.9120872607982
 31
0.0
  0
SPLINE
  5
22D
330
1F
100
AcDbEntity
  8
0
  6
Continuous
 62
     2
100
AcDbSpline
210
0.0
220
0.0
230
1.0
 70
     8
 71
     3
 72
    15
 73
    11
 74
     9
 42
0.0000000001
 43
0.0000000001
 44
0.00000001
 40
0.0
 40
0.0
 40
0.0
 40
0.0
 40
0.4730725014881204
 40
0.950789689452774
 40
1.412285789199424
 40
1.835606361825037
 40
2.200820986885804
 40
2.493302025297227
 40
2.705136633080687
 40
2.836048434384661
 40
2.836048434384661
 40
2.836048434384661
 40
2.836048434384661
 10
1180.583458794966
 20
863.3993027576745
 30
0.0
 10
1180.583582787489
 20
863.2416119707159
 30
0.0
 10
1180.58383198991
 20
862.924682168433
 30
0.0
 10
1180.583984972538
 20
862.4539202499536
 30
0.0
 10
1180.584020965735
 20
861.999742294839
 30
0.0
 10
1180.583980599631
 20
861.5830652016092
 30
0.0
 10
1180.583909091822
 20
861.2227264461285
 30
0.0
 10
1180.583905205051
 20
860.9328830652478
 30
0.0
 10
1180.583912358779
 20
860.7211404811826
 30
0.0
 10
1180.5841452873
 20
860.6068918943665
 30
0.0
 10
1180.58423425422
 20
860.5632547098476
 30
0.0
 11
1180.583458794966
 21
863.3993027576745
 31
0.0
 11
1180.583794576212
 21
862.9262303753532
 31
0.0
 11
1180.583966827727
 21
862.448513218443
 31
0.0
 11
1180.584007842854
 21
861.987017120519
 31
0.0
 11
1180.583971029109
 21
861.5636965494941
 31
0.0
 11
1180.583916789134
 21
861.1984819284611
 31
0.0
 11
1180.583907513064
 21
860.9060008901968
 31
0.0
 11
1180.584000771224
 21
860.6941663029413
 31
0.0
 11
1180.58423425422
 21
860.5632547098476
 31
0.0
  0
SPLINE
  5
22E
330
1F
100
AcDbEntity
  8
0
  6
Continuous
 62
     2
100
AcDbSpline
210
0.0
220
0.0
230
1.0
 70
     8
 71
     3
 72
    11
 73
     7
 74
     5
 42
0.0000000001
 43
0.0000000001
 44
0.00000001
 40
0.0
 40
0.0
 40
0.0
 40
0.0
 40
0.423025738351664
 40
0.7255727094816691
 40
0.8465936492291899
 40
0.967612501997392
 40
0.967612501997392
 40
0.967612501997392
 40
0.967612501997392
 10
1094.64213642723
 20
859.9120872607982
 30
0.0
 10
1094.64687615908
 20
859.7711583623346
 30
0.0
 10
1094.655005735533
 20
859.5294374611412
 30
0.0
 10
1094.664485535232
 20
859.2473988492237
 30
0.0
 10
1094.67058761475
 20
859.0659725174116
 30
0.0
 10
1094.673295892142
 20
858.9853380553276
 30
0.0
 10
1094.674650019162
 20
858.9450211719193
 30
0.0
 11
1094.64213642723
 21
859.9120872607982
 31
0.0
 11
1094.656353950956
 21
859.4893005091999
 31
0.0
 11
1094.666519784979
 21
859.1869243766124
 31
0.0
 11
1094.670586695183
 21
859.0659717904525
 31
0.0
 11
1094.674650019162
 21
858.9450211719193
 31
0.0
  0
SPLINE
  5
22F
330
1F
100
AcDbEntity
  8
0
  6
Continuous
 62
     2
100
AcDbSpline
210
0.0
220
0.0
230
1.0
 70
     8
 71
     3
 72
    15
 73
    11
 74
     9
 42
0.0000000001
 43
0.0000000001
 44
0.00000001
 40
0.0
 40
0.0
 40
0.0
 40
0.0
 40
0.130911452665699
 40
0.3427455577912077
 40
0.635225894187295
 40
1.000439587532813
 40
1.423758988087449
 40
1.885253687917398
 40
2.362969279027614
 40
2.836040030364622
 40
2.836040030364622
 40
2.836040030364622
 40
2.836040030364622
 10
1098.117293648611
 20
860.5632571893966
 30
0.0
 10
1098.11738260817
 20
860.606894257717
 30
0.0
 10
1098.117615517463
 20
860.7211425608052
 30
0.0
 10
1098.117622649017
 20
860.9328846270939
 30
0.0
 10
1098.117618734499
 20
861.2227272958472
 30
0.0
 10
1098.117547197113
 20
861.5830651160541
 30
0.0
 10
1098.117506799484
 20
861.9997410413803
 30
0.0
 10
1098.117542760614
 20
862.4539176068835
 30
0.0
 10
1098.117695711517
 20
862.9246779430661
 30
0.0
 10
1098.117944893548
 20
863.241606629696
 30
0.0
 10
1098.118068875904
 20
863.3992968332788
 30
0.0
 11
1098.117293648611
 21
860.5632571893966
 31
0.0
 11
1098.117527110598
 21
860.694168433889
 31
0.0
 11
1098.117620344086
 21
860.9060025184973
 31
0.0
 11
1098.117611040098
 21
861.1984828547454
 31
0.0
 11
1098.117556769581
 21
861.5636965440586
 31
0.0
 11
1098.117519923669
 21
861.9870159430097
 31
0.0
 11
1098.117560906064
 21
862.44851064102
 31
0.0
 11
1098.11773312539
 21
862.9262262010872
 31
0.0
 11
1098.118068875904
 21
863.3992968332788
 31
0.0
  0
SPLINE
  5
230
330
1F
100
AcDbEntity
  8
0
  6
Continuous
 62
     2
100
AcDbSpline
210
0.0
220
0.0
230
1.0
 70
     8
 71
     3
 72
    18
 73
    14
 74
    12
 42
0.0000000001
 43
0.0000000001
 44
0.00000001
 40
0.0
 40
0.0
 40
0.0
 40
0.0
 40
0.0787002557098183
 40
0.2493051756968818
 40
0.5207496138424377
 40
1.147536407727476
 40
1.917287163138819
 40
2.245982143109641
 40
2.708715728888131
 40
3.302890315057296
 40
4.025985653474875
 40
5.260269298217636
 40
6.542148889254508
 40
6.542148889254508
 40
6.542148889254508
 40
6.542148889254508
 10
1091.643930753444
 20
862.772098364194
 30
0.0
 10
1091.660118064868
 20
862.7933811443373
 30
0.0
 10
1091.711395922638
 20
862.8608003311633
 30
0.0
 10
1091.891789214204
 20
862.9004761474079
 30
0.0
 10
1092.229207426092
 20
862.9911726272634
 30
0.0
 10
1092.785461356462
 20
863.0696766563171
 30
0.0
 10
1093.354490883073
 20
863.1385117299924
 30
0.0
 10
1093.872710565289
 20
863.1888061190474
 30
0.0
 10
1094.332799385301
 20
863.2286013485955
 30
0.0
 10
1094.924568118685
 20
863.2723115403456
 30
0.0
 10
1095.773533196346
 20
863.3237617314046
 30
0.0
 10
1096.852314140041
 20
863.3721404069536
 30
0.0
 10
1097.690863276297
 20
863.3901312524101
 30
0.0
 10
1098.118068875904
 20
863.3992968332788
 30
0.0
 11
1091.643930753444
 21
862.772098364194
 31
0.0
 11
1091.695988922861
 21
862.8311210483566
 31
0.0
 11
1091.85483438865
 21
862.8933637726061
 31
0.0
 11
1092.118490561061
 21
862.9579199942254
 31
0.0
 11
1092.736754418607
 21
863.060932068474
 31
0.0
 11
1093.501103323193
 21
863.1519649060349
 31
0.0
 11
1093.828232422188
 21
863.1840108488151
 31
0.0
 11
1094.289236356085
 21
863.2239826431146
 31
0.0
 11
1094.881780592174
 21
863.2679686309539
 31
0.0
 11
1095.603530597748
 21
863.3120571543528
 31
0.0
 11
1096.836603396621
 21
863.3667159904171
 31
0.0
 11
1098.118068875904
 21
863.3992968332788
 31
0.0
  0
SPLINE
  5
231
330
1F
100
AcDbEntity
  8
0
  6
Continuous
 62
     2
100
AcDbSpline
210
0.0
220
0.0
230
1.0
 70
     8
 71
     3
 72
    11
 73
     7
 74
     5
 42
0.0000000001
 43
0.0000000001
 44
0.00000001
 40
0.0
 40
0.0
 40
0.0
 40
0.0
 40
3.18846794313183
 40
6.074317096463166
 40
9.373514700013807
 40
12.11838021706556
 40
12.11838021706556
 40
12.11838021706556
 40
12.11838021706556
 10
1187.007058389786
 20
1017.28625938349
 30
0.0
 10
1187.007473744782
 20
1018.349082153179
 30
0.0
 10
1187.008265033263
 20
1020.373854751048
 30
0.0
 10
1187.014931773269
 20
1023.498353637993
 30
0.0
 10
1187.024807339371
 20
1026.474976090155
 30
0.0
 10
1187.034977804182
 20
1028.489638412258
 30
0.0
 10
1187.039596643793
 20
1029.40458205631
 30
0.0
 11
1187.007058389786
 21
1017.28625938349
 31
0.0
 11
1187.009276789209
 21
1020.474726554888
 31
0.0
 11
1187.015169201601
 21
1023.360569692562
 31
0.0
 11
1187.026459168751
 21
1026.659747978729
 31
0.0
 11
1187.039596643793
 21
1029.40458205631
 31
0.0
  0
SPLINE
  5
232
330
1F
100
AcDbEntity
  8
0
  6
Continuous
 62
     2
100
AcDbSpline
210
0.0
220
0.0
230
1.0
 70
     8
 71
     3
 72
    19
 73
    15
 74
    13
 42
0.0000000001
 43
0.0000000001
 44
0.00000001
 40
0.0
 40
0.0
 40
0.0
 40
0.0
 40
0.0290834996560252
 40
0.0643174112188726
 40
0.1604749788018998
 40
0.2992912373080024
 40
0.4850681639067486
 40
0.7168330456840633
 40
0.991485947257533
 40
1.302470276710218
 40
1.641296360504578
 40
1.998423816386152
 40
2.546415259449339
 40
3.082280921829494
 40
3.082280921829494
 40
3.082280921829494
 40
3.082280921829494
 10
1091.625930753444
 20
1029.404582123058
 30
0.0
 10
1091.629195068248
 20
1029.413793861097
 30
0.0
 10
1091.636414016452
 20
1029.434165382768
 30
0.0
 10
1091.672702211962
 20
1029.474831140376
 30
0.0
 10
1091.749318710324
 20
1029.523699525938
 30
0.0
 10
1091.879369833109
 20
1029.577200482402
 30
0.0
 10
1092.05747788762
 20
1029.629610820341
 30
0.0
 10
1092.2828126098
 20
1029.679758901847
 30
0.0
 10
1092.551425961918
 20
1029.725933542969
 30
0.0
 10
1092.856980717819
 20
1029.766320047541
 30
0.0
 10
1093.190928667727
 20
1029.800464508463
 30
0.0
 10
1093.60440302373
 20
1029.832024911009
 30
0.0
 10
1094.08425432421
 20
1029.855895945164
 30
0.0
 10
1094.445522971589
 20
1029.861069761687
 30
0.0
 10
1094.62413642723
 20
1029.863627728603
 30
0.0
 11
1091.625930753444
 21
1029.404582123058
 31
0.0
 11
1091.637221492762
 21
1029.431384532612
 31
0.0
 11
1091.659468041418
 21
1029.458707043421
 31
0.0
 11
1091.738228237678
 21
1029.51387142766
 31
0.0
 11
1091.865509966845
 21
1029.569272826975
 31
0.0
 11
1092.043202396969
 21
1029.623480453127
 31
0.0
 11
1092.26917786647
 21
1029.674959066249
 31
0.0
 11
1092.539731889249
 21
1029.722232072299
 31
0.0
 11
1092.847945978367
 21
1029.763648595988
 31
0.0
 11
1093.184981563042
 21
1029.798435514825
 31
0.0
 11
1093.541048172318
 21
1029.825941686914
 31
0.0
 11
1094.088379570574
 21
1029.852829642456
 31
0.0
 11
1094.62413642723
 21
1029.863627728603
 31
0.0
  0
SPLINE
  5
233
330
1F
100
AcDbEntity
  8
0
  6
Continuous
 62
     2
100
AcDbSpline
210
0.0
220
0.0
230
1.0
 70
     8
 71
     3
 72
    11
 73
     7
 74
     5
 42
0.0000000001
 43
0.0000000001
 44
0.00000001
 40
0.0
 40
0.0
 40
0.0
 40
0.0
 40
1.700136055933077
 40
3.400272111866153
 40
5.100407417991351
 40
6.800542724116891
 40
6.800542724116891
 40
6.800542724116891
 40
6.800542724116891
 10
1355.703990714402
 20
1010.485716660426
 30
0.0
 10
1355.703991245057
 20
1011.05242867907
 30
0.0
 10
1355.703992306367
 20
1012.185852716358
 30
0.0
 10
1355.703995640271
 20
1013.885988522354
 30
0.0
 10
1355.703992006422
 20
1015.586124078414
 30
0.0
 10
1355.703990745148
 20
1016.71954761583
 30
0.0
 10
1355.703990114511
 20
1017.286259384538
 30
0.0
 11
1355.703990714402
 21
1010.485716660426
 31
0.0
 11
1355.703992596691
 21
1012.185852716358
 31
0.0
 11
1355.703994478979
 21
1013.88598877229
 31
0.0
 11
1355.703992296745
 21
1015.586124078414
 31
0.0
 11
1355.703990114511
 21
1017.286259384538
 31
0.0
  0
MTEXT
  5
235
330
1F
100
AcDbEntity
  8
Symbole_ISO_
 62
     7
100
AcDbMText
 10
1152.904913495524
 20
745.9672728815447
 30
0.0
 40
6.9999998807907
 41
0.0
 71
     5
 72
     1
  1
G. Merafina
  7
CONVERTER_12
 73
     1
 44
0.75727272727273
  0
MTEXT
  5
236
330
1F
100
AcDbEntity
  8
Symbole_ISO_
 62
     7
100
AcDbMText
 10
1152.904913495524
 20
761.6672728815447
 30
0.0
 40
6.9999998807907
 41
0.0
 71
     5
 72
     1
  1
31.10.2012
  7
CONVERTER_12
 73
     1
 44
0.75727272727273
  0
MTEXT
  5
237
330
1F
100
AcDbEntity
  8
Symbole_ISO_
 62
     7
100
AcDbMText
 10
1412.979913495524
 20
762.9172728815447
 30
0.0
 40
5.0
 41
0.0
 71
     5
 72
     1
  1
Scale
  7
CONVERTER_11
 73
     1
 44
0.75727272727273
  0
MTEXT
  5
238
330
1F
100
AcDbEntity
  8
Symbole_ISO_
 62
     7
100
AcDbMText
 10
1123.104913495524
 20
746.3672728815447
 30
0.0
 40
5.0
 41
0.0
 71
     4
 72
     1
  1
Sign.
  7
CONVERTER_11
 73
     1
 44
0.75727272727273
  0
MTEXT
  5
239
330
1F
100
AcDbEntity
  8
Symbole_ISO_
 62
     7
100
AcDbMText
 10
1123.104913495524
 20
761.6672728815447
 30
0.0
 40
5.0
 41
0.0
 71
     4
 72
     1
  1
Date
  7
CONVERTER_11
 73
     1
 44
0.75727272727273
  0
TEXT
  5
23B
330
1F
100
AcDbEntity
  8
Symbole_ISO_
 62
     7
100
AcDbText
 10
1181.904913495524
 20
743.3672728517427
 30
0.0
 40
8.00000011920928
  1
Dust cover for transportation for 10 poles housings
 41
0.89999994635582
  7
CONVERTER_13
100
AcDbText
  0
TEXT
  5
23C
330
1F
100
AcDbEntity
  8
Symbole_ISO_
 62
     7
100
AcDbText
 10
1407.610370637198
 20
746.117272881545
 30
0.0
 40
10.0
  1
1:2
 41
0.67499998211861
  7
CONVERTER_11
100
AcDbText
  0
TEXT
  5
23D
330
1F
100
AcDbEntity
  8
Symbole_ISO_
 62
     7
100
AcDbText
 10
1181.400701052775
 20
757.694753130188
 30
0.0
 40
8.00000011920928
  1
CGCP 10 FX
 41
0.89999994635582
  7
CONVERTER_13
100
AcDbText
  0
MTEXT
  5
23F
330
1F
100
AcDbEntity
  8
1
 62
     4
100
AcDbMText
 10
1147.132688218587
 20
798.69250149546
 30
0.0
 40
14.0
 41
0.0
 71
     2
 72
     1
  1
 
  7
CONVERTER_14
 73
     1
 44
1.32052821128451
  0
MTEXT
  5
240
330
1F
100
AcDbEntity
  8
1
 62
     4
100
AcDbMText
 10
1188.124619776766
 20
825.0441315662415
 30
0.0
 40
14.0
 41
0.0
 71
     2
 72
     1
  1
 
  7
CONVERTER_14
 73
     1
 44
1.32052821128451
  0
DIMENSION
  5
24D
330
1F
100
AcDbEntity
  8
1
100
AcDbDimension
  2
*D2
 10
1308.844892039951
 20
983.785989520138
 30
0.0
 11
1308.844892039951
 21
1013.885103957024
 31
0.0
 70
    32
  1
<>
 71
     5
 42
-1.0
 53
90.0
  3
ME10_DIM_10
100
AcDbAlignedDimension
 13
1324.599298947226
 23
1043.98421839391
 33
0.0
 14
1324.599298947226
 24
983.785989520138
 34
0.0
 50
90.0
100
AcDbRotatedDimension
  0
DIMENSION
  5
259
330
1F
100
AcDbEntity
  8
1
100
AcDbDimension
  2
*D3
 10
1228.592963731473
 20
892.9450184306645
 30
0.0
 11
1228.592963731473
 21
875.945018411757
 31
0.0
 70
    32
  1
<>
 71
     5
 42
-1.0
 53
90.0
  3
ME10_DIM_11
100
AcDbAlignedDimension
 13
1184.026883275132
 23
858.9450183928494
 33
0.0
 14
1205.592963731473
 24
892.9450184306645
 34
0.0
 50
90.0
100
AcDbRotatedDimension
  0
DIMENSION
  5
265
330
1F
100
AcDbEntity
  8
1
100
AcDbDimension
  2
*D4
 10
1065.092334859731
 20
969.0859895201357
 30
0.0
 11
1139.333649295602
 21
969.0859895201357
 31
0.0
 70
    32
  1
<>
 71
     5
 42
-1.0
 53
0.00013888888889
  3
ME10_DIM_12
100
AcDbAlignedDimension
 13
1213.574963731473
 23
1029.984218393908
 33
0.0
 14
1065.092334859731
 24
991.7859895201359
 34
0.0
100
AcDbRotatedDimension
  0
HATCH
  5
266
330
1F
100
AcDbEntity
  8
Schraffur
  6
Continuous
 62
     7
100
AcDbHatch
 10
0.0
 20
0.0
 30
0.0
210
0.0
220
0.0
230
1.0
  2
SOLID
 70
     1
 71
     1
 91
        1
 92
        1
 93
        4
 72
     1
 10
1444.615965613891
 20
756.9990402773329
 11
1444.615965613891
 21
750.3859627135865
 72
     2
 10
1443.949298947225
 20
750.3859627135865
 40
0.6666666666651508
 50
0.0
 51
180.0
 73
     0
 72
     1
 10
1443.28263228056
 20
750.3859627135865
 11
1443.28263228056
 21
756.9990402773329
 72
     2
 10
1443.949298947225
 20
756.9990402773329
 40
0.666666666665833
 50
180.0
 51
360.0
 73
     0
 97
        4
330
192
330
1F9
330
193
330
1FA
 75
     0
 76
     1
 98
        1
 10
0.0
 20
0.0
  0
HATCH
  5
267
330
1F
100
AcDbEntity
  8
Schraffur
  6
Continuous
 62
     7
100
AcDbHatch
 10
0.0
 20
0.0
 30
0.0
210
0.0
220
0.0
230
1.0
  2
SOLID
 70
     1
 71
     1
 91
        1
 92
        1
 93
        7
 72
     1
 10
1447.282634298165
 20
749.2325426275213
 11
1447.282634298165
 21
758.5791780434059
 72
     2
 10
1446.615967631497
 20
758.5791780434059
 40
0.6666666666681067
 50
0.0
 51
180.0
 73
     1
 72
     1
 10
1445.949300964831
 20
758.5791780434059
 11
1445.949300964831
 21
749.2325451711837
 72
     2
 10
1447.282638702287
 20
749.2325451711837
 40
1.333337737455849
 50
180.0
 51
240.0183606311468
 73
     1
 72
     1
 10
1446.616339896795
 20
748.0776272416643
 11
1450.951610306139
 21
745.576509697812
 72
     2
 10
1451.284758608465
 20
746.1539667551777
 40
0.6666666666665145
 50
240.0183606311832
 51
420.0183606311832
 73
     1
 72
     1
 10
1451.617906910791
 20
746.7314238125435
 11
1447.282634298165
 21
749.2325426275213
 97
        7
330
1F8
330
190
330
1F7
330
18F
330
1F6
330
18E
330
191
 75
     0
 76
     1
 98
        1
 10
0.0
 20
0.0
  0
HATCH
  5
268
330
1F
100
AcDbEntity
  8
Schraffur
  6
Continuous
 62
     7
100
AcDbHatch
 10
0.0
 20
0.0
 30
0.0
210
0.0
220
0.0
230
1.0
  2
SOLID
 70
     1
 71
     1
 91
        1
 92
        1
 93
       13
 72
     2
 10
1449.145908864695
 20
760.1966174288215
 40
0.5299324249511409
 50
29.9999999999539
 51
180.0
 73
     1
 72
     1
 10
1448.615976439744
 20
760.1966174288215
 11
1448.615976439745
 21
750.3859627135865
 72
     2
 10
1449.282643106411
 20
750.3859627135865
 40
0.666666666665833
 50
180.0
 51
360.0
 73
     1
 72
     1
 10
1449.949309773077
 20
750.3859627135865
 11
1449.949309773077
 21
757.1982933399529
 72
     1
 10
1449.949309773077
 20
757.1982933399529
 11
1451.660623812632
 21
754.2342104757415
 72
     2
 10
1451.949298947225
 20
754.4008771424081
 40
0.3333333333318977
 50
210.0000000001349
 51
329.9999999999237
 73
     1
 72
     1
 10
1452.237974081819
 20
754.2342104757415
 11
1453.949288121373
 21
757.1982933399529
 72
     1
 10
1453.949288121373
 20
757.1982933399529
 11
1453.949288121373
 21
747.2673583273709
 72
     2
 10
1454.615954788039
 20
747.2673583273709
 40
0.6666666666660603
 50
180.0
 51
360.0
 73
     1
 72
     1
 10
1455.282621454707
 20
747.2673583273709
 11
1455.282621454707
 21
760.1966174288214
 72
     2
 10
1454.752689029755
 20
760.1966174288214
 40
0.5299324249519941
 50
0.0
 51
149.9999999999248
 73
     1
 72
     1
 10
1454.29375408746
 20
760.4615836412967
 11
1451.949298947225
 21
756.4008682223451
 72
     1
 10
1451.949298947225
 20
756.4008682223451
 11
1449.604843806992
 21
760.4615836412967
 97
       13
330
18C
330
1F5
330
18B
330
1F4
330
18A
330
189
330
1F3
330
188
330
187
330
1F2
330
186
330
1F1
330
18D
 75
     0
 76
     1
 98
        1
 10
0.0
 20
0.0
  0
HATCH
  5
269
330
1F
100
AcDbEntity
  8
1
  6
Continuous
 62
     7
100
AcDbHatch
 10
0.0
 20
0.0
 30
0.0
210
0.0
220
0.0
230
1.0
  2
SOLID
 70
     1
 71
     1
 91
        1
 92
        1
 93
       14
 72
     1
 10
1460.354684026471
 20
749.8085056562207
 11
1457.61577856528
 21
748.2283678901478
 72
     2
 10
1457.282630262952
 20
748.8058249475139
 40
0.6666666666675378
 50
60.01836063107938
 51
179.9999999999707
 73
     0
 72
     1
 10
1456.615963596285
 20
748.8058249475135
 11
1456.615963596285
 21
758.5791780434059
 72
     2
 10
1457.282630262952
 20
758.5791780434056
 40
0.6666666666675379
 50
180.0000000000293
 51
299.9816393689206
 73
     0
 72
     1
 10
1457.61577856528
 20
759.1566351007717
 11
1460.354684026471
 21
757.5764973346987
 72
     2
 10
1460.021535724146
 20
756.9990402773326
 40
0.6666666666665145
 50
299.9816393687514
 51
479.9816393688823
 73
     0
 72
     1
 10
1459.688387421819
 20
756.4215832199671
 11
1457.949296929619
 21
757.4249046577745
 72
     1
 10
1457.949296929619
 20
757.4249046577745
 11
1457.949296929619
 21
754.3591681621265
 72
     1
 10
1457.949296929619
 20
754.3591681621265
 11
1460.021535724146
 21
754.3591681621265
 72
     2
 10
1460.021535724146
 20
753.6925014954597
 40
0.6666666666667993
 50
270.0
 51
450.0
 73
     0
 72
     1
 10
1460.021535724146
 20
753.0258348287929
 11
1457.949296929619
 21
753.0258348287929
 72
     1
 10
1457.949296929619
 20
753.0258348287929
 11
1457.949296929619
 21
749.9600983331449
 72
     1
 10
1457.949296929619
 20
749.9600983331449
 11
1459.688387421819
 21
750.9634197709523
 72
     2
 10
1460.021535724146
 20
750.3859627135869
 40
0.6666666666665144
 50
240.0183606311178
 51
420.0183606312487
 73
     0
 97
       14
330
16F
330
16E
330
16D
330
1EA
330
16C
330
16B
330
16A
330
1E9
330
169
330
1DF
330
171
330
1E0
330
170
330
1EB
 75
     0
 76
     1
 98
        1
 10
0.0
 20
0.0
  0
ENDSEC
  0
SECTION
  2
OBJECTS
  0
DICTIONARY
  5
C
330
0
100
AcDbDictionary
281
     1
  3
ACAD_GROUP
350
D
  3
ACAD_LAYOUT
350
1A
  3
ACAD_MATERIAL
350
3B
  3
ACAD_MLEADERSTYLE
350
26C
  3
ACAD_MLINESTYLE
350
17
  3
ACAD_PLOTSETTINGS
350
19
  3
ACAD_PLOTSTYLENAME
350
E
  3
ACAD_SCALELIST
350
4D
  3
ACAD_VISUALSTYLE
350
2A
  3
AcDbVariableDictionary
350
26A
  0
DICTIONARY
  5
D
102
{ACAD_REACTORS
330
C
102
}
330
C
100
AcDbDictionary
281
     1
  0
DICTIONARY
  5
1A
102
{ACAD_REACTORS
330
C
102
}
330
C
100
AcDbDictionary
281
     1
  3
Layout1
350
1E
  3
Layout2
350
26
  3
Model
350
22
  0
DICTIONARY
  5
3B
102
{ACAD_REACTORS
330
C
102
}
330
C
100
AcDbDictionary
281
     1
  3
ByBlock
350
3D
  3
ByLayer
350
3C
  3
Global
350
3E
  0
DICTIONARY
  5
26C
102
{ACAD_REACTORS
330
C
102
}
330
C
100
AcDbDictionary
281
     1
  0
DICTIONARY
  5
17
102
{ACAD_REACTORS
330
C
102
}
330
C
100
AcDbDictionary
281
     1
  3
Standard
350
18
  0
DICTIONARY
  5
19
102
{ACAD_REACTORS
330
C
102
}
330
C
100
AcDbDictionary
281
     1
  0
ACDBDICTIONARYWDFLT
  5
E
102
{ACAD_REACTORS
330
C
102
}
330
C
100
AcDbDictionary
281
     1
  3
Normal
350
F
100
AcDbDictionaryWithDefault
340
F
  0
DICTIONARY
  5
4D
102
{ACAD_REACTORS
330
C
102
}
330
C
100
AcDbDictionary
281
     1
  3
A0
350
4E
  3
A1
350
4F
  3
A2
350
50
  3
A3
350
51
  3
A4
350
52
  3
A5
350
53
  3
A6
350
54
  3
A7
350
55
  3
A8
350
56
  3
A9
350
57
  3
B0
350
58
  3
B1
350
59
  3
B2
350
5A
  3
B3
350
5B
  3
B4
350
5C
  3
B5
350
5D
  3
B6
350
5E
  3
B7
350
5F
  3
B8
350
60
  3
B9
350
61
  3
C0
350
62
  3
C1
350
63
  3
C2
350
64
  3
C3
350
65
  3
C4
350
66
  3
C5
350
67
  3
C6
350
68
  3
C7
350
69
  3
C8
350
6A
  3
C9
350
6B
  3
D0
350
6C
  3
D1
350
6D
  3
D2
350
6E
  0
DICTIONARY
  5
2A
102
{ACAD_REACTORS
330
C
102
}
330
C
100
AcDbDictionary
281
     1
  3
2dWireframe
350
2F
  3
3D Hidden
350
31
  3
3dWireframe
350
30
  3
Basic
350
32
  3
Brighten
350
36
  3
ColorChange
350
3A
  3
Conceptual
350
34
  3
Dim
350
35
  3
Facepattern
350
39
  3
Flat
350
2B
  3
FlatWithEdges
350
2C
  3
Gouraud
350
2D
  3
GouraudWithEdges
350
2E
  3
Linepattern
350
38
  3
Realistic
350
33
  3
Thicken
350
37
  0
DICTIONARY
  5
26A
102
{ACAD_REACTORS
330
C
102
}
330
C
100
AcDbDictionary
281
     1
  3
CANNOSCALE
350
26D
  3
DIMASSOC
350
26E
  3
HIDETEXT
350
26F
  0
LAYOUT
  5
1E
102
{ACAD_REACTORS
330
1A
102
}
330
1A
100
AcDbPlotSettings
  1

  2
none_device
  4

  6

 40
0.0
 41
0.0
 42
0.0
 43
0.0
 44
0.0
 45
0.0
 46
0.0
 47
0.0
 48
0.0
 49
0.0
140
0.0
141
0.0
142
1.0
143
1.0
 70
   688
 72
     0
 73
     0
 74
     5
  7

 75
    16
147
1.0
148
0.0
149
0.0
100
AcDbLayout
  1
Layout1
 70
     1
 71
     1
 10
0.0
 20
0.0
 11
12.0
 21
9.0
 12
0.0
 22
0.0
 32
0.0
 14
1.00000000000000E+20
 24
1.00000000000000E+20
 34
1.00000000000000E+20
 15
-1.00000000000000E+20
 25
-1.00000000000000E+20
 35
-1.00000000000000E+20
146
0.0
 13
0.0
 23
0.0
 33
0.0
 16
1.0
 26
0.0
 36
0.0
 17
0.0
 27
1.0
 37
0.0
 76
     0
330
1B
  0
LAYOUT
  5
26
102
{ACAD_REACTORS
330
1A
102
}
330
1A
100
AcDbPlotSettings
  1

  2
none_device
  4

  6

 40
0.0
 41
0.0
 42
0.0
 43
0.0
 44
0.0
 45
0.0
 46
0.0
 47
0.0
 48
0.0
 49
0.0
140
0.0
141
0.0
142
1.0
143
1.0
 70
   688
 72
     0
 73
     0
 74
     5
  7

 75
    16
147
1.0
148
0.0
149
0.0
100
AcDbLayout
  1
Layout2
 70
     1
 71
     2
 10
0.0
 20
0.0
 11
0.0
 21
0.0
 12
0.0
 22
0.0
 32
0.0
 14
0.0
 24
0.0
 34
0.0
 15
0.0
 25
0.0
 35
0.0
146
0.0
 13
0.0
 23
0.0
 33
0.0
 16
1.0
 26
0.0
 36
0.0
 17
0.0
 27
1.0
 37
0.0
 76
     0
330
23
  0
LAYOUT
  5
22
102
{ACAD_REACTORS
330
1A
102
}
330
1A
100
AcDbPlotSettings
  1

  2
none_device
  4

  6

 40
0.0
 41
0.0
 42
0.0
 43
0.0
 44
0.0
 45
0.0
 46
0.0
 47
0.0
 48
0.0
 49
0.0
140
0.0
141
0.0
142
1.0
143
1.0
 70
  1712
 72
     0
 73
     0
 74
     0
  7

 75
     0
147
1.0
148
0.0
149
0.0
100
AcDbLayout
  1
Model
 70
     1
 71
     0
 10
0.0
 20
0.0
 11
12.0
 21
9.0
 12
0.0
 22
0.0
 32
0.0
 14
920.0992989472256
 24
738.1925014954597
 34
0.0
 15
1475.099298947226
 25
1139.19250149546
 35
0.0
146
0.0
 13
0.0
 23
0.0
 33
0.0
 16
1.0
 26
0.0
 36
0.0
 17
0.0
 27
1.0
 37
0.0
 76
     0
330
1F
331
29
  0
MATERIAL
  5
3D
102
{ACAD_REACTORS
330
3B
102
}
102
{ACAD_XDICTIONARY
360
292
102
}
330
3B
100
AcDbMaterial
  1
ByBlock
  0
MATERIAL
  5
3C
102
{ACAD_REACTORS
330
3B
102
}
102
{ACAD_XDICTIONARY
360
290
102
}
330
3B
100
AcDbMaterial
  1
ByLayer
  0
MATERIAL
  5
3E
102
{ACAD_REACTORS
330
3B
102
}
102
{ACAD_XDICTIONARY
360
294
102
}
330
3B
100
AcDbMaterial
  1
Global
  0
MLINESTYLE
  5
18
102
{ACAD_REACTORS
330
17
102
}
330
17
100
AcDbMlineStyle
  2
Standard
 70
     0
  3

 62
   256
 51
90.0
 52
90.0
 71
     2
 49
0.5
 62
   256
  6
BYLAYER
 49
-0.5
 62
   256
  6
BYLAYER
  0
ACDBPLACEHOLDER
  5
F
102
{ACAD_REACTORS
330
E
102
}
330
E
  0
SCALE
  5
4E
102
{ACAD_REACTORS
330
4D
102
}
330
4D
100
AcDbScale
 70
     0
300
1:1
140
1.0
141
1.0
290
     1
  0
SCALE
  5
4F
102
{ACAD_REACTORS
330
4D
102
}
330
4D
100
AcDbScale
 70
     0
300
1:2
140
1.0
141
2.0
290
     0
  0
SCALE
  5
50
102
{ACAD_REACTORS
330
4D
102
}
330
4D
100
AcDbScale
 70
     0
300
1:4
140
1.0
141
4.0
290
     0
  0
SCALE
  5
51
102
{ACAD_REACTORS
330
4D
102
}
330
4D
100
AcDbScale
 70
     0
300
1:5
140
1.0
141
5.0
290
     0
  0
SCALE
  5
52
102
{ACAD_REACTORS
330
4D
102
}
330
4D
100
AcDbScale
 70
     0
300
1:8
140
1.0
141
8.0
290
     0
  0
SCALE
  5
53
102
{ACAD_REACTORS
330
4D
102
}
330
4D
100
AcDbScale
 70
     0
300
1:10
140
1.0
141
10.0
290
     0
  0
SCALE
  5
54
102
{ACAD_REACTORS
330
4D
102
}
330
4D
100
AcDbScale
 70
     0
300
1:16
140
1.0
141
16.0
290
     0
  0
SCALE
  5
55
102
{ACAD_REACTORS
330
4D
102
}
330
4D
100
AcDbScale
 70
     0
300
1:20
140
1.0
141
20.0
290
     0
  0
SCALE
  5
56
102
{ACAD_REACTORS
330
4D
102
}
330
4D
100
AcDbScale
 70
     0
300
1:30
140
1.0
141
30.0
290
     0
  0
SCALE
  5
57
102
{ACAD_REACTORS
330
4D
102
}
330
4D
100
AcDbScale
 70
     0
300
1:40
140
1.0
141
40.0
290
     0
  0
SCALE
  5
58
102
{ACAD_REACTORS
330
4D
102
}
330
4D
100
AcDbScale
 70
     0
300
1:50
140
1.0
141
50.0
290
     0
  0
SCALE
  5
59
102
{ACAD_REACTORS
330
4D
102
}
330
4D
100
AcDbScale
 70
     0
300
1:100
140
1.0
141
100.0
290
     0
  0
SCALE
  5
5A
102
{ACAD_REACTORS
330
4D
102
}
330
4D
100
AcDbScale
 70
     0
300
2:1
140
2.0
141
1.0
290
     0
  0
SCALE
  5
5B
102
{ACAD_REACTORS
330
4D
102
}
330
4D
100
AcDbScale
 70
     0
300
4:1
140
4.0
141
1.0
290
     0
  0
SCALE
  5
5C
102
{ACAD_REACTORS
330
4D
102
}
330
4D
100
AcDbScale
 70
     0
300
8:1
140
8.0
141
1.0
290
     0
  0
SCALE
  5
5D
102
{ACAD_REACTORS
330
4D
102
}
330
4D
100
AcDbScale
 70
     0
300
10:1
140
10.0
141
1.0
290
     0
  0
SCALE
  5
5E
102
{ACAD_REACTORS
330
4D
102
}
330
4D
100
AcDbScale
 70
     0
300
100:1
140
100.0
141
1.0
290
     0
  0
SCALE
  5
5F
102
{ACAD_REACTORS
330
4D
102
}
330
4D
100
AcDbScale
 70
     0
300
1/128" = 1'-0"
140
0.0078125
141
12.0
290
     0
  0
SCALE
  5
60
102
{ACAD_REACTORS
330
4D
102
}
330
4D
100
AcDbScale
 70
     0
300
1/64" = 1'-0"
140
0.015625
141
12.0
290
     0
  0
SCALE
  5
61
102
{ACAD_REACTORS
330
4D
102
}
330
4D
100
AcDbScale
 70
     0
300
1/32" = 1'-0"
140
0.03125
141
12.0
290
     0
  0
SCALE
  5
62
102
{ACAD_REACTORS
330
4D
102
}
330
4D
100
AcDbScale
 70
     0
300
1/16" = 1'-0"
140
0.0625
141
12.0
290
     0
  0
SCALE
  5
63
102
{ACAD_REACTORS
330
4D
102
}
330
4D
100
AcDbScale
 70
     0
300
3/32" = 1'-0"
140
0.09375
141
12.0
290
     0
  0
SCALE
  5
64
102
{ACAD_REACTORS
330
4D
102
}
330
4D
100
AcDbScale
 70
     0
300
1/8" = 1'-0"
140
0.125
141
12.0
290
     0
  0
SCALE
  5
65
102
{ACAD_REACTORS
330
4D
102
}
330
4D
100
AcDbScale
 70
     0
300
3/16" = 1'-0"
140
0.1875
141
12.0
290
     0
  0
SCALE
  5
66
102
{ACAD_REACTORS
330
4D
102
}
330
4D
100
AcDbScale
 70
     0
300
1/4" = 1'-0"
140
0.25
141
12.0
290
     0
  0
SCALE
  5
67
102
{ACAD_REACTORS
330
4D
102
}
330
4D
100
AcDbScale
 70
     0
300
3/8" = 1'-0"
140
0.375
141
12.0
290
     0
  0
SCALE
  5
68
102
{ACAD_REACTORS
330
4D
102
}
330
4D
100
AcDbScale
 70
     0
300
1/2" = 1'-0"
140
0.5
141
12.0
290
     0
  0
SCALE
  5
69
102
{ACAD_REACTORS
330
4D
102
}
330
4D
100
AcDbScale
 70
     0
300
3/4" = 1'-0"
140
0.75
141
12.0
290
     0
  0
SCALE
  5
6A
102
{ACAD_REACTORS
330
4D
102
}
330
4D
100
AcDbScale
 70
     0
300
1" = 1'-0"
140
1.0
141
12.0
290
     0
  0
SCALE
  5
6B
102
{ACAD_REACTORS
330
4D
102
}
330
4D
100
AcDbScale
 70
     0
300
1-1/2" = 1'-0"
140
1.5
141
12.0
290
     0
  0
SCALE
  5
6C
102
{ACAD_REACTORS
330
4D
102
}
330
4D
100
AcDbScale
 70
     0
300
3" = 1'-0"
140
3.0
141
12.0
290
     0
  0
SCALE
  5
6D
102
{ACAD_REACTORS
330
4D
102
}
330
4D
100
AcDbScale
 70
     0
300
6" = 1'-0"
140
6.0
141
12.0
290
     0
  0
SCALE
  5
6E
102
{ACAD_REACTORS
330
4D
102
}
330
4D
100
AcDbScale
 70
     0
300
1'-0" = 1'-0"
140
12.0
141
12.0
290
     0
  0
VISUALSTYLE
  5
2F
102
{ACAD_REACTORS
330
2A
102
}
102
{ACAD_XDICTIONARY
360
278
102
}
330
2A
100
AcDbVisualStyle
  2
2dWireframe
 70
     4
 71
     0
 72
     2
 73
     0
 90
        0
 40
-0.6
 41
-30.0
 62
     5
 63
     7
 74
     1
 91
        4
 64
     7
 65
   257
 75
     1
175
     1
 42
1.0
 92
        0
 66
   257
 43
1.0
 76
     1
 77
     6
 78
     2
 67
     7
 79
     5
170
     0
171
     0
290
     0
174
     0
 93
        1
 44
0.0
173
     0
291
     0
 45
0.0
1001
ACAD
1000
AcDbSavedByObjectVersion
1070
     0
  0
VISUALSTYLE
  5
31
102
{ACAD_REACTORS
330
2A
102
}
102
{ACAD_XDICTIONARY
360
27C
102
}
330
2A
100
AcDbVisualStyle
  2
3D Hidden
 70
     6
 71
     1
 72
     2
 73
     2
 90
        0
 40
-0.6
 41
-30.0
 62
     5
 63
     7
 74
     2
 91
        2
 64
     7
 65
   257
 75
     2
175
     1
 42
40.0
 92
        0
 66
   257
 43
1.0
 76
     1
 77
     6
 78
     2
 67
     7
 79
     3
170
     0
171
     0
290
     0
174
     0
 93
        1
 44
0.0
173
     0
291
     0
 45
0.0
1001
ACAD
1000
AcDbSavedByObjectVersion
1070
     0
  0
VISUALSTYLE
  5
30
102
{ACAD_REACTORS
330
2A
102
}
102
{ACAD_XDICTIONARY
360
27A
102
}
330
2A
100
AcDbVisualStyle
  2
3dWireframe
 70
     5
 71
     0
 72
     2
 73
     0
 90
        0
 40
-0.6
 41
-30.0
 62
     5
 63
     7
 74
     1
 91
        4
 64
     7
 65
   257
 75
     1
175
     1
 42
1.0
 92
        0
 66
   257
 43
1.0
 76
     1
 77
     6
 78
     2
 67
     7
 79
     5
170
     0
171
     0
290
     0
174
     0
 93
        1
 44
0.0
173
     0
291
     0
 45
0.0
1001
ACAD
1000
AcDbSavedByObjectVersion
1070
     0
  0
VISUALSTYLE
  5
32
102
{ACAD_REACTORS
330
2A
102
}
102
{ACAD_XDICTIONARY
360
27E
102
}
330
2A
100
AcDbVisualStyle
  2
Basic
 70
     7
 71
     1
 72
     0
 73
     1
 90
        0
 40
-0.6
 41
-30.0
 62
     5
 63
     7
 74
     0
 91
        4
 64
     7
 65
   257
 75
     1
175
     1
 42
1.0
 92
        8
 66
     7
 43
1.0
 76
     1
 77
     6
 78
     2
 67
     7
 79
     5
170
     0
171
     0
290
     0
174
     0
 93
        1
 44
0.0
173
     0
291
     1
 45
0.0
1001
ACAD
1000
AcDbSavedByObjectVersion
1070
     0
  0
VISUALSTYLE
  5
36
102
{ACAD_REACTORS
330
2A
102
}
102
{ACAD_XDICTIONARY
360
286
102
}
330
2A
100
AcDbVisualStyle
  2
Brighten
 70
    12
 71
     2
 72
     2
 73
     0
 90
        0
 40
-0.6
 41
-30.0
 62
     5
 63
     7
 74
     1
 91
        4
 64
     7
 65
   257
 75
     1
175
     1
 42
1.0
 92
        8
 66
     7
 43
1.0
 76
     1
 77
     6
 78
     2
 67
     7
 79
     5
170
     0
171
     0
290
     0
174
     0
 93
        1
 44
50.0
173
     0
291
     1
 45
0.0
1001
ACAD
1000
AcDbSavedByObjectVersion
1070
     0
  0
VISUALSTYLE
  5
3A
102
{ACAD_REACTORS
330
2A
102
}
102
{ACAD_XDICTIONARY
360
28E
102
}
330
2A
100
AcDbVisualStyle
  2
ColorChange
 70
    16
 71
     2
 72
     2
 73
     3
 90
        0
 40
-0.6
 41
-30.0
 62
     5
 63
     8
 74
     1
 91
        4
 64
     7
 65
   257
 75
     1
175
     1
 42
1.0
 92
        8
 66
     8
 43
1.0
 76
     1
 77
     6
 78
     2
 67
     7
 79
     5
170
     0
171
     0
290
     0
174
     0
 93
        1
 44
0.0
173
     0
291
     1
 45
0.0
1001
ACAD
1000
AcDbSavedByObjectVersion
1070
     0
  0
VISUALSTYLE
  5
34
102
{ACAD_REACTORS
330
2A
102
}
102
{ACAD_XDICTIONARY
360
282
102
}
330
2A
100
AcDbVisualStyle
  2
Conceptual
 70
     9
 71
     3
 72
     2
 73
     0
 90
        0
 40
-0.6
 41
-30.0
 62
     5
 63
     7
 74
     2
 91
        2
 64
     7
 65
   257
 75
     1
175
     1
 42
40.0
 92
        8
 66
     7
 43
1.0
 76
     1
 77
     6
 78
     2
 67
     7
 79
     3
170
     0
171
     0
290
     0
174
     0
 93
        1
 44
0.0
173
     0
291
     0
 45
0.0
1001
ACAD
1000
AcDbSavedByObjectVersion
1070
     0
  0
VISUALSTYLE
  5
35
102
{ACAD_REACTORS
330
2A
102
}
102
{ACAD_XDICTIONARY
360
284
102
}
330
2A
100
AcDbVisualStyle
  2
Dim
 70
    11
 71
     2
 72
     2
 73
     0
 90
        0
 40
-0.6
 41
-30.0
 62
     5
 63
     7
 74
     1
 91
        4
 64
     7
 65
   257
 75
     1
175
     1
 42
1.0
 92
        8
 66
     7
 43
1.0
 76
     1
 77
     6
 78
     2
 67
     7
 79
     5
170
     0
171
     0
290
     0
174
     0
 93
        1
 44
-50.0
173
     0
291
     1
 45
0.0
1001
ACAD
1000
AcDbSavedByObjectVersion
1070
     0
  0
VISUALSTYLE
  5
39
102
{ACAD_REACTORS
330
2A
102
}
102
{ACAD_XDICTIONARY
360
28C
102
}
330
2A
100
AcDbVisualStyle
  2
Facepattern
 70
    15
 71
     2
 72
     2
 73
     0
 90
        0
 40
-0.6
 41
-30.0
 62
     5
 63
     7
 74
     1
 91
        4
 64
     7
 65
   257
 75
     1
175
     1
 42
1.0
 92
        8
 66
     7
 43
1.0
 76
     1
 77
     6
 78
     2
 67
     7
 79
     5
170
     0
171
     0
290
     0
174
     0
 93
        1
 44
0.0
173
     0
291
     1
 45
0.0
1001
ACAD
1000
AcDbSavedByObjectVersion
1070
     0
  0
VISUALSTYLE
  5
2B
102
{ACAD_REACTORS
330
2A
102
}
102
{ACAD_XDICTIONARY
360
270
102
}
330
2A
100
AcDbVisualStyle
  2
Flat
 70
     0
 71
     2
 72
     1
 73
     1
 90
        2
 40
-0.6
 41
30.0
 62
     5
 63
     7
 74
     0
 91
        4
 64
     7
 65
   257
 75
     1
175
     1
 42
1.0
 92
        8
 66
     7
 43
1.0
 76
     1
 77
     6
 78
     2
 67
     7
 79
     5
170
     0
171
     0
290
     0
174
     0
 93
       13
 44
0.0
173
     0
291
     1
 45
0.0
1001
ACAD
1000
AcDbSavedByObjectVersion
1070
     0
  0
VISUALSTYLE
  5
2C
102
{ACAD_REACTORS
330
2A
102
}
102
{ACAD_XDICTIONARY
360
272
102
}
330
2A
100
AcDbVisualStyle
  2
FlatWithEdges
 70
     1
 71
     2
 72
     1
 73
     1
 90
        2
 40
-0.6
 41
30.0
 62
     5
 63
     7
 74
     1
 91
        4
 64
     7
 65
   257
 75
     1
175
     1
 42
1.0
 92
        0
 66
   257
 43
1.0
 76
     1
 77
     6
 78
     2
 67
     7
 79
     5
170
     0
171
     0
290
     0
174
     0
 93
       13
 44
0.0
173
     0
291
     1
 45
0.0
1001
ACAD
1000
AcDbSavedByObjectVersion
1070
     0
  0
VISUALSTYLE
  5
2D
102
{ACAD_REACTORS
330
2A
102
}
102
{ACAD_XDICTIONARY
360
274
102
}
330
2A
100
AcDbVisualStyle
  2
Gouraud
 70
     2
 71
     2
 72
     2
 73
     1
 90
        2
 40
-0.6
 41
30.0
 62
     5
 63
     7
 74
     0
 91
        4
 64
     7
 65
   257
 75
     1
175
     1
 42
1.0
 92
        0
 66
     7
 43
1.0
 76
     1
 77
     6
 78
     2
 67
     7
 79
     5
170
     0
171
     0
290
     0
174
     0
 93
       13
 44
0.0
173
     0
291
     1
 45
0.0
1001
ACAD
1000
AcDbSavedByObjectVersion
1070
     0
  0
VISUALSTYLE
  5
2E
102
{ACAD_REACTORS
330
2A
102
}
102
{ACAD_XDICTIONARY
360
276
102
}
330
2A
100
AcDbVisualStyle
  2
GouraudWithEdges
 70
     3
 71
     2
 72
     2
 73
     1
 90
        2
 40
-0.6
 41
30.0
 62
     5
 63
     7
 74
     1
 91
        4
 64
     7
 65
   257
 75
     1
175
     1
 42
1.0
 92
        0
 66
   257
 43
1.0
 76
     1
 77
     6
 78
     2
 67
     7
 79
     5
170
     0
171
     0
290
     0
174
     0
 93
       13
 44
0.0
173
     0
291
     1
 45
0.0
1001
ACAD
1000
AcDbSavedByObjectVersion
1070
     0
  0
VISUALSTYLE
  5
38
102
{ACAD_REACTORS
330
2A
102
}
102
{ACAD_XDICTIONARY
360
28A
102
}
330
2A
100
AcDbVisualStyle
  2
Linepattern
 70
    14
 71
     2
 72
     2
 73
     0
 90
        0
 40
-0.6
 41
-30.0
 62
     5
 63
     7
 74
     1
 91
        4
 64
     7
 65
   257
 75
     7
175
     7
 42
1.0
 92
        8
 66
     7
 43
1.0
 76
     1
 77
     6
 78
     2
 67
     7
 79
     5
170
     0
171
     0
290
     0
174
     0
 93
        1
 44
0.0
173
     0
291
     1
 45
0.0
1001
ACAD
1000
AcDbSavedByObjectVersion
1070
     0
  0
VISUALSTYLE
  5
33
102
{ACAD_REACTORS
330
2A
102
}
102
{ACAD_XDICTIONARY
360
280
102
}
330
2A
100
AcDbVisualStyle
  2
Realistic
 70
     8
 71
     2
 72
     2
 73
     0
 90
        0
 40
-0.6
 41
-30.0
 62
     5
 63
     7
 74
     1
 91
        0
 64
     7
 65
   257
 75
     1
175
     1
 42
1.0
 92
        8
 66
     8
 43
1.0
 76
     1
 77
     6
 78
     2
 67
     7
 79
     5
170
     0
171
     0
290
     0
174
     0
 93
       13
 44
0.0
173
     0
291
     0
 45
0.0
1001
ACAD
1000
AcDbSavedByObjectVersion
1070
     0
  0
VISUALSTYLE
  5
37
102
{ACAD_REACTORS
330
2A
102
}
102
{ACAD_XDICTIONARY
360
288
102
}
330
2A
100
AcDbVisualStyle
  2
Thicken
 70
    13
 71
     2
 72
     2
 73
     0
 90
        0
 40
-0.6
 41
-30.0
 62
     5
 63
     7
 74
     1
 91
        4
 64
     7
 65
   257
 75
     1
175
     1
 42
1.0
 92
       12
 66
     7
 43
1.0
 76
     1
 77
     6
 78
     2
 67
     7
 79
     5
170
     0
171
     0
290
     0
174
     0
 93
        1
 44
0.0
173
     0
291
     1
 45
0.0
1001
ACAD
1000
AcDbSavedByObjectVersion
1070
     0
  0
DICTIONARYVAR
  5
26D
102
{ACAD_REACTORS
330
26A
102
}
330
26A
100
DictionaryVariables
280
     0
  1
1:1
  0
DICTIONARYVAR
  5
26E
102
{ACAD_REACTORS
330
26A
102
}
330
26A
100
DictionaryVariables
280
     0
  1
2
  0
DICTIONARYVAR
  5
26F
102
{ACAD_REACTORS
330
26A
102
}
330
26A
100
DictionaryVariables
280
     0
  1
1
  0
DICTIONARY
  5
292
330
3D
100
AcDbDictionary
280
     1
281
     1
  3
ACAD_XREC_ROUNDTRIP
360
293
  0
DICTIONARY
  5
290
330
3C
100
AcDbDictionary
280
     1
281
     1
  3
ACAD_XREC_ROUNDTRIP
360
291
  0
DICTIONARY
  5
294
330
3E
100
AcDbDictionary
280
     1
281
     1
  3
ACAD_XREC_ROUNDTRIP
360
295
  0
DICTIONARY
  5
278
330
2F
100
AcDbDictionary
280
     1
281
     1
  3
ACAD_XREC_ROUNDTRIP
360
279
  0
DICTIONARY
  5
27C
330
31
100
AcDbDictionary
280
     1
281
     1
  3
ACAD_XREC_ROUNDTRIP
360
27D
  0
DICTIONARY
  5
27A
330
30
100
AcDbDictionary
280
     1
281
     1
  3
ACAD_XREC_ROUNDTRIP
360
27B
  0
DICTIONARY
  5
27E
330
32
100
AcDbDictionary
280
     1
281
     1
  3
ACAD_XREC_ROUNDTRIP
360
27F
  0
DICTIONARY
  5
286
330
36
100
AcDbDictionary
280
     1
281
     1
  3
ACAD_XREC_ROUNDTRIP
360
287
  0
DICTIONARY
  5
28E
330
3A
100
AcDbDictionary
280
     1
281
     1
  3
ACAD_XREC_ROUNDTRIP
360
28F
  0
DICTIONARY
  5
282
330
34
100
AcDbDictionary
280
     1
281
     1
  3
ACAD_XREC_ROUNDTRIP
360
283
  0
DICTIONARY
  5
284
330
35
100
AcDbDictionary
280
     1
281
     1
  3
ACAD_XREC_ROUNDTRIP
360
285
  0
DICTIONARY
  5
28C
330
39
100
AcDbDictionary
280
     1
281
     1
  3
ACAD_XREC_ROUNDTRIP
360
28D
  0
DICTIONARY
  5
270
330
2B
100
AcDbDictionary
280
     1
281
     1
  3
ACAD_XREC_ROUNDTRIP
360
271
  0
DICTIONARY
  5
272
330
2C
100
AcDbDictionary
280
     1
281
     1
  3
ACAD_XREC_ROUNDTRIP
360
273
  0
DICTIONARY
  5
274
330
2D
100
AcDbDictionary
280
     1
281
     1
  3
ACAD_XREC_ROUNDTRIP
360
275
  0
DICTIONARY
  5
276
330
2E
100
AcDbDictionary
280
     1
281
     1
  3
ACAD_XREC_ROUNDTRIP
360
277
  0
DICTIONARY
  5
28A
330
38
100
AcDbDictionary
280
     1
281
     1
  3
ACAD_XREC_ROUNDTRIP
360
28B
  0
DICTIONARY
  5
280
330
33
100
AcDbDictionary
280
     1
281
     1
  3
ACAD_XREC_ROUNDTRIP
360
281
  0
DICTIONARY
  5
288
330
37
100
AcDbDictionary
280
     1
281
     1
  3
ACAD_XREC_ROUNDTRIP
360
289
  0
XRECORD
  5
293
102
{ACAD_REACTORS
330
292
102
}
330
292
100
AcDbXrecord
280
     1
102
MATERIAL
148
0.0
149
0.0
149
0.0
 93
        0
 94
      127
282
     0
 72
     1
 77
     1
171
     1
175
     1
179
     1
273
     0
  0
XRECORD
  5
291
102
{ACAD_REACTORS
330
290
102
}
330
290
100
AcDbXrecord
280
     1
102
MATERIAL
148
0.0
149
0.0
149
0.0
 93
        0
 94
      127
282
     0
 72
     1
 77
     1
171
     1
175
     1
179
     1
273
     0
  0
XRECORD
  5
295
102
{ACAD_REACTORS
330
294
102
}
330
294
100
AcDbXrecord
280
     1
102
MATERIAL
148
0.0
149
0.0
149
0.0
 93
        0
 94
      127
282
     0
 72
     1
 77
     1
171
     1
175
     1
179
     1
273
     0
  0
XRECORD
  5
279
102
{ACAD_REACTORS
330
278
102
}
330
278
100
AcDbXrecord
280
     1
102
RTVSPropertyOp0
 70
     1
102
RTVSPropertyOp1
 70
     1
102
RTVSPropertyOp2
 70
     1
102
RTVSPropertyOp3
 70
     1
102
RTVSPropertyOp4
 70
     1
102
RTVSPropertyOp5
 70
     1
102
RTVSPropertyOp6
 70
     1
102
RTVSPropertyOp7
 70
     1
102
RTVSPropertyOp8
 70
     1
102
RTVSPropertyOp9
 70
     1
102
RTVSPropertyOp10
 70
     1
102
RTVSPropertyOp11
 70
     1
102
RTVSPropertyOp12
 70
     1
102
RTVSPropertyOp13
 70
     1
102
RTVSPropertyOp14
 70
     1
102
RTVSPropertyOp15
 70
     1
102
RTVSPropertyOp16
 70
     1
102
RTVSPropertyOp17
 70
     1
102
RTVSPropertyOp18
 70
     1
102
RTVSPropertyOp19
 70
     1
102
RTVSPropertyOp20
 70
     1
102
RTVSPropertyOp21
 70
     1
102
RTVSPropertyOp22
 70
     1
102
RTVSPropertyOp23
 70
     1
102
RTVSPropertyOp24
 70
     1
102
RTVSPropertyOp25
 70
     1
102
RTVSPropertyOp26
 70
     1
102
RTVSPropertyOp27
 70
     1
  0
XRECORD
  5
27D
102
{ACAD_REACTORS
330
27C
102
}
330
27C
100
AcDbXrecord
280
     1
102
RTVSPropertyOp0
 70
     1
102
RTVSPropertyOp1
 70
     1
102
RTVSPropertyOp2
 70
     1
102
RTVSPropertyOp3
 70
     1
102
RTVSPropertyOp4
 70
     1
102
RTVSPropertyOp5
 70
     1
102
RTVSPropertyOp6
 70
     1
102
RTVSPropertyOp7
 70
     1
102
RTVSPropertyOp8
 70
     1
102
RTVSPropertyOp9
 70
     1
102
RTVSPropertyOp10
 70
     1
102
RTVSPropertyOp11
 70
     1
102
RTVSPropertyOp12
 70
     1
102
RTVSPropertyOp13
 70
     1
102
RTVSPropertyOp14
 70
     1
102
RTVSPropertyOp15
 70
     1
102
RTVSPropertyOp16
 70
     1
102
RTVSPropertyOp17
 70
     1
102
RTVSPropertyOp18
 70
     1
102
RTVSPropertyOp19
 70
     1
102
RTVSPropertyOp20
 70
     1
102
RTVSPropertyOp21
 70
     1
102
RTVSPropertyOp22
 70
     1
102
RTVSPropertyOp23
 70
     1
102
RTVSPropertyOp24
 70
     1
102
RTVSPropertyOp25
 70
     1
102
RTVSPropertyOp26
 70
     1
102
RTVSPropertyOp27
 70
     1
  0
XRECORD
  5
27B
102
{ACAD_REACTORS
330
27A
102
}
330
27A
100
AcDbXrecord
280
     1
102
RTVSPropertyOp0
 70
     1
102
RTVSPropertyOp1
 70
     1
102
RTVSPropertyOp2
 70
     1
102
RTVSPropertyOp3
 70
     1
102
RTVSPropertyOp4
 70
     1
102
RTVSPropertyOp5
 70
     1
102
RTVSPropertyOp6
 70
     1
102
RTVSPropertyOp7
 70
     1
102
RTVSPropertyOp8
 70
     1
102
RTVSPropertyOp9
 70
     1
102
RTVSPropertyOp10
 70
     1
102
RTVSPropertyOp11
 70
     1
102
RTVSPropertyOp12
 70
     1
102
RTVSPropertyOp13
 70
     1
102
RTVSPropertyOp14
 70
     1
102
RTVSPropertyOp15
 70
     1
102
RTVSPropertyOp16
 70
     1
102
RTVSPropertyOp17
 70
     1
102
RTVSPropertyOp18
 70
     1
102
RTVSPropertyOp19
 70
     1
102
RTVSPropertyOp20
 70
     1
102
RTVSPropertyOp21
 70
     1
102
RTVSPropertyOp22
 70
     1
102
RTVSPropertyOp23
 70
     1
102
RTVSPropertyOp24
 70
     1
102
RTVSPropertyOp25
 70
     1
102
RTVSPropertyOp26
 70
     1
102
RTVSPropertyOp27
 70
     1
  0
XRECORD
  5
27F
102
{ACAD_REACTORS
330
27E
102
}
330
27E
100
AcDbXrecord
280
     1
102
RTVSPropertyOp0
 70
     1
102
RTVSPropertyOp1
 70
     1
102
RTVSPropertyOp2
 70
     1
102
RTVSPropertyOp3
 70
     1
102
RTVSPropertyOp4
 70
     1
102
RTVSPropertyOp5
 70
     1
102
RTVSPropertyOp6
 70
     1
102
RTVSPropertyOp7
 70
     1
102
RTVSPropertyOp8
 70
     1
102
RTVSPropertyOp9
 70
     1
102
RTVSPropertyOp10
 70
     1
102
RTVSPropertyOp11
 70
     1
102
RTVSPropertyOp12
 70
     1
102
RTVSPropertyOp13
 70
     1
102
RTVSPropertyOp14
 70
     1
102
RTVSPropertyOp15
 70
     1
102
RTVSPropertyOp16
 70
     1
102
RTVSPropertyOp17
 70
     1
102
RTVSPropertyOp18
 70
     1
102
RTVSPropertyOp19
 70
     1
102
RTVSPropertyOp20
 70
     1
102
RTVSPropertyOp21
 70
     1
102
RTVSPropertyOp22
 70
     1
102
RTVSPropertyOp23
 70
     1
102
RTVSPropertyOp24
 70
     1
102
RTVSPropertyOp25
 70
     1
102
RTVSPropertyOp26
 70
     1
102
RTVSPropertyOp27
 70
     1
  0
XRECORD
  5
287
102
{ACAD_REACTORS
330
286
102
}
330
286
100
AcDbXrecord
280
     1
102
RTVSPropertyOp0
 70
     1
102
RTVSPropertyOp1
 70
     1
102
RTVSPropertyOp2
 70
     1
102
RTVSPropertyOp3
 70
     1
102
RTVSPropertyOp4
 70
     1
102
RTVSPropertyOp5
 70
     1
102
RTVSPropertyOp6
 70
     1
102
RTVSPropertyOp7
 70
     1
102
RTVSPropertyOp8
 70
     1
102
RTVSPropertyOp9
 70
     1
102
RTVSPropertyOp10
 70
     1
102
RTVSPropertyOp11
 70
     1
102
RTVSPropertyOp12
 70
     1
102
RTVSPropertyOp13
 70
     1
102
RTVSPropertyOp14
 70
     1
102
RTVSPropertyOp15
 70
     1
102
RTVSPropertyOp16
 70
     1
102
RTVSPropertyOp17
 70
     1
102
RTVSPropertyOp18
 70
     1
102
RTVSPropertyOp19
 70
     1
102
RTVSPropertyOp20
 70
     1
102
RTVSPropertyOp21
 70
     1
102
RTVSPropertyOp22
 70
     1
102
RTVSPropertyOp23
 70
     1
102
RTVSPropertyOp24
 70
     1
102
RTVSPropertyOp25
 70
     1
102
RTVSPropertyOp26
 70
     1
102
RTVSPropertyOp27
 70
     1
  0
XRECORD
  5
28F
102
{ACAD_REACTORS
330
28E
102
}
330
28E
100
AcDbXrecord
280
     1
102
RTVSPropertyOp0
 70
     1
102
RTVSPropertyOp1
 70
     1
102
RTVSPropertyOp2
 70
     1
102
RTVSPropertyOp3
 70
     1
102
RTVSPropertyOp4
 70
     1
102
RTVSPropertyOp5
 70
     1
102
RTVSPropertyOp6
 70
     1
102
RTVSPropertyOp7
 70
     1
102
RTVSPropertyOp8
 70
     1
102
RTVSPropertyOp9
 70
     1
102
RTVSPropertyOp10
 70
     1
102
RTVSPropertyOp11
 70
     1
102
RTVSPropertyOp12
 70
     1
102
RTVSPropertyOp13
 70
     1
102
RTVSPropertyOp14
 70
     1
102
RTVSPropertyOp15
 70
     1
102
RTVSPropertyOp16
 70
     1
102
RTVSPropertyOp17
 70
     1
102
RTVSPropertyOp18
 70
     1
102
RTVSPropertyOp19
 70
     1
102
RTVSPropertyOp20
 70
     1
102
RTVSPropertyOp21
 70
     1
102
RTVSPropertyOp22
 70
     1
102
RTVSPropertyOp23
 70
     1
102
RTVSPropertyOp24
 70
     1
102
RTVSPropertyOp25
 70
     1
102
RTVSPropertyOp26
 70
     1
102
RTVSPropertyOp27
 70
     1
  0
XRECORD
  5
283
102
{ACAD_REACTORS
330
282
102
}
330
282
100
AcDbXrecord
280
     1
102
RTVSPropertyOp0
 70
     1
102
RTVSPropertyOp1
 70
     1
102
RTVSPropertyOp2
 70
     1
102
RTVSPropertyOp3
 70
     1
102
RTVSPropertyOp4
 70
     1
102
RTVSPropertyOp5
 70
     1
102
RTVSPropertyOp6
 70
     1
102
RTVSPropertyOp7
 70
     1
102
RTVSPropertyOp8
 70
     1
102
RTVSPropertyOp9
 70
     1
102
RTVSPropertyOp10
 70
     1
102
RTVSPropertyOp11
 70
     1
102
RTVSPropertyOp12
 70
     1
102
RTVSPropertyOp13
 70
     1
102
RTVSPropertyOp14
 70
     1
102
RTVSPropertyOp15
 70
     1
102
RTVSPropertyOp16
 70
     1
102
RTVSPropertyOp17
 70
     1
102
RTVSPropertyOp18
 70
     1
102
RTVSPropertyOp19
 70
     1
102
RTVSPropertyOp20
 70
     1
102
RTVSPropertyOp21
 70
     1
102
RTVSPropertyOp22
 70
     1
102
RTVSPropertyOp23
 70
     1
102
RTVSPropertyOp24
 70
     1
102
RTVSPropertyOp25
 70
     1
102
RTVSPropertyOp26
 70
     1
102
RTVSPropertyOp27
 70
     1
  0
XRECORD
  5
285
102
{ACAD_REACTORS
330
284
102
}
330
284
100
AcDbXrecord
280
     1
102
RTVSPropertyOp0
 70
     1
102
RTVSPropertyOp1
 70
     1
102
RTVSPropertyOp2
 70
     1
102
RTVSPropertyOp3
 70
     1
102
RTVSPropertyOp4
 70
     1
102
RTVSPropertyOp5
 70
     1
102
RTVSPropertyOp6
 70
     1
102
RTVSPropertyOp7
 70
     1
102
RTVSPropertyOp8
 70
     1
102
RTVSPropertyOp9
 70
     1
102
RTVSPropertyOp10
 70
     1
102
RTVSPropertyOp11
 70
     1
102
RTVSPropertyOp12
 70
     1
102
RTVSPropertyOp13
 70
     1
102
RTVSPropertyOp14
 70
     1
102
RTVSPropertyOp15
 70
     1
102
RTVSPropertyOp16
 70
     1
102
RTVSPropertyOp17
 70
     1
102
RTVSPropertyOp18
 70
     1
102
RTVSPropertyOp19
 70
     1
102
RTVSPropertyOp20
 70
     1
102
RTVSPropertyOp21
 70
     1
102
RTVSPropertyOp22
 70
     1
102
RTVSPropertyOp23
 70
     1
102
RTVSPropertyOp24
 70
     1
102
RTVSPropertyOp25
 70
     1
102
RTVSPropertyOp26
 70
     1
102
RTVSPropertyOp27
 70
     1
  0
XRECORD
  5
28D
102
{ACAD_REACTORS
330
28C
102
}
330
28C
100
AcDbXrecord
280
     1
102
RTVSPropertyOp0
 70
     1
102
RTVSPropertyOp1
 70
     1
102
RTVSPropertyOp2
 70
     1
102
RTVSPropertyOp3
 70
     1
102
RTVSPropertyOp4
 70
     1
102
RTVSPropertyOp5
 70
     1
102
RTVSPropertyOp6
 70
     1
102
RTVSPropertyOp7
 70
     1
102
RTVSPropertyOp8
 70
     1
102
RTVSPropertyOp9
 70
     1
102
RTVSPropertyOp10
 70
     1
102
RTVSPropertyOp11
 70
     1
102
RTVSPropertyOp12
 70
     1
102
RTVSPropertyOp13
 70
     1
102
RTVSPropertyOp14
 70
     1
102
RTVSPropertyOp15
 70
     1
102
RTVSPropertyOp16
 70
     1
102
RTVSPropertyOp17
 70
     1
102
RTVSPropertyOp18
 70
     1
102
RTVSPropertyOp19
 70
     1
102
RTVSPropertyOp20
 70
     1
102
RTVSPropertyOp21
 70
     1
102
RTVSPropertyOp22
 70
     1
102
RTVSPropertyOp23
 70
     1
102
RTVSPropertyOp24
 70
     1
102
RTVSPropertyOp25
 70
     1
102
RTVSPropertyOp26
 70
     1
102
RTVSPropertyOp27
 70
     1
  0
XRECORD
  5
271
102
{ACAD_REACTORS
330
270
102
}
330
270
100
AcDbXrecord
280
     1
102
RTVSPropertyOp0
 70
     1
102
RTVSPropertyOp1
 70
     1
102
RTVSPropertyOp2
 70
     1
102
RTVSPropertyOp3
 70
     1
102
RTVSPropertyOp4
 70
     1
102
RTVSPropertyOp5
 70
     1
102
RTVSPropertyOp6
 70
     1
102
RTVSPropertyOp7
 70
     1
102
RTVSPropertyOp8
 70
     1
102
RTVSPropertyOp9
 70
     1
102
RTVSPropertyOp10
 70
     1
102
RTVSPropertyOp11
 70
     1
102
RTVSPropertyOp12
 70
     1
102
RTVSPropertyOp13
 70
     1
102
RTVSPropertyOp14
 70
     1
102
RTVSPropertyOp15
 70
     1
102
RTVSPropertyOp16
 70
     1
102
RTVSPropertyOp17
 70
     1
102
RTVSPropertyOp18
 70
     1
102
RTVSPropertyOp19
 70
     1
102
RTVSPropertyOp20
 70
     1
102
RTVSPropertyOp21
 70
     1
102
RTVSPropertyOp22
 70
     1
102
RTVSPropertyOp23
 70
     1
102
RTVSPropertyOp24
 70
     1
102
RTVSPropertyOp25
 70
     1
102
RTVSPropertyOp26
 70
     1
102
RTVSPropertyOp27
 70
     1
  0
XRECORD
  5
273
102
{ACAD_REACTORS
330
272
102
}
330
272
100
AcDbXrecord
280
     1
102
RTVSPropertyOp0
 70
     1
102
RTVSPropertyOp1
 70
     1
102
RTVSPropertyOp2
 70
     1
102
RTVSPropertyOp3
 70
     1
102
RTVSPropertyOp4
 70
     1
102
RTVSPropertyOp5
 70
     1
102
RTVSPropertyOp6
 70
     1
102
RTVSPropertyOp7
 70
     1
102
RTVSPropertyOp8
 70
     1
102
RTVSPropertyOp9
 70
     1
102
RTVSPropertyOp10
 70
     1
102
RTVSPropertyOp11
 70
     1
102
RTVSPropertyOp12
 70
     1
102
RTVSPropertyOp13
 70
     1
102
RTVSPropertyOp14
 70
     1
102
RTVSPropertyOp15
 70
     1
102
RTVSPropertyOp16
 70
     1
102
RTVSPropertyOp17
 70
     1
102
RTVSPropertyOp18
 70
     1
102
RTVSPropertyOp19
 70
     1
102
RTVSPropertyOp20
 70
     1
102
RTVSPropertyOp21
 70
     1
102
RTVSPropertyOp22
 70
     1
102
RTVSPropertyOp23
 70
     1
102
RTVSPropertyOp24
 70
     1
102
RTVSPropertyOp25
 70
     1
102
RTVSPropertyOp26
 70
     1
102
RTVSPropertyOp27
 70
     1
  0
XRECORD
  5
275
102
{ACAD_REACTORS
330
274
102
}
330
274
100
AcDbXrecord
280
     1
102
RTVSPropertyOp0
 70
     1
102
RTVSPropertyOp1
 70
     1
102
RTVSPropertyOp2
 70
     1
102
RTVSPropertyOp3
 70
     1
102
RTVSPropertyOp4
 70
     1
102
RTVSPropertyOp5
 70
     1
102
RTVSPropertyOp6
 70
     1
102
RTVSPropertyOp7
 70
     1
102
RTVSPropertyOp8
 70
     1
102
RTVSPropertyOp9
 70
     1
102
RTVSPropertyOp10
 70
     1
102
RTVSPropertyOp11
 70
     1
102
RTVSPropertyOp12
 70
     1
102
RTVSPropertyOp13
 70
     1
102
RTVSPropertyOp14
 70
     1
102
RTVSPropertyOp15
 70
     1
102
RTVSPropertyOp16
 70
     1
102
RTVSPropertyOp17
 70
     1
102
RTVSPropertyOp18
 70
     1
102
RTVSPropertyOp19
 70
     1
102
RTVSPropertyOp20
 70
     1
102
RTVSPropertyOp21
 70
     1
102
RTVSPropertyOp22
 70
     1
102
RTVSPropertyOp23
 70
     1
102
RTVSPropertyOp24
 70
     1
102
RTVSPropertyOp25
 70
     1
102
RTVSPropertyOp26
 70
     1
102
RTVSPropertyOp27
 70
     1
  0
XRECORD
  5
277
102
{ACAD_REACTORS
330
276
102
}
330
276
100
AcDbXrecord
280
     1
102
RTVSPropertyOp0
 70
     1
102
RTVSPropertyOp1
 70
     1
102
RTVSPropertyOp2
 70
     1
102
RTVSPropertyOp3
 70
     1
102
RTVSPropertyOp4
 70
     1
102
RTVSPropertyOp5
 70
     1
102
RTVSPropertyOp6
 70
     1
102
RTVSPropertyOp7
 70
     1
102
RTVSPropertyOp8
 70
     1
102
RTVSPropertyOp9
 70
     1
102
RTVSPropertyOp10
 70
     1
102
RTVSPropertyOp11
 70
     1
102
RTVSPropertyOp12
 70
     1
102
RTVSPropertyOp13
 70
     1
102
RTVSPropertyOp14
 70
     1
102
RTVSPropertyOp15
 70
     1
102
RTVSPropertyOp16
 70
     1
102
RTVSPropertyOp17
 70
     1
102
RTVSPropertyOp18
 70
     1
102
RTVSPropertyOp19
 70
     1
102
RTVSPropertyOp20
 70
     1
102
RTVSPropertyOp21
 70
     1
102
RTVSPropertyOp22
 70
     1
102
RTVSPropertyOp23
 70
     1
102
RTVSPropertyOp24
 70
     1
102
RTVSPropertyOp25
 70
     1
102
RTVSPropertyOp26
 70
     1
102
RTVSPropertyOp27
 70
     1
  0
XRECORD
  5
28B
102
{ACAD_REACTORS
330
28A
102
}
330
28A
100
AcDbXrecord
280
     1
102
RTVSPropertyOp0
 70
     1
102
RTVSPropertyOp1
 70
     1
102
RTVSPropertyOp2
 70
     1
102
RTVSPropertyOp3
 70
     1
102
RTVSPropertyOp4
 70
     1
102
RTVSPropertyOp5
 70
     1
102
RTVSPropertyOp6
 70
     1
102
RTVSPropertyOp7
 70
     1
102
RTVSPropertyOp8
 70
     1
102
RTVSPropertyOp9
 70
     1
102
RTVSPropertyOp10
 70
     1
102
RTVSPropertyOp11
 70
     1
102
RTVSPropertyOp12
 70
     1
102
RTVSPropertyOp13
 70
     1
102
RTVSPropertyOp14
 70
     1
102
RTVSPropertyOp15
 70
     1
102
RTVSPropertyOp16
 70
     1
102
RTVSPropertyOp17
 70
     1
102
RTVSPropertyOp18
 70
     1
102
RTVSPropertyOp19
 70
     1
102
RTVSPropertyOp20
 70
     1
102
RTVSPropertyOp21
 70
     1
102
RTVSPropertyOp22
 70
     1
102
RTVSPropertyOp23
 70
     1
102
RTVSPropertyOp24
 70
     1
102
RTVSPropertyOp25
 70
     1
102
RTVSPropertyOp26
 70
     1
102
RTVSPropertyOp27
 70
     1
  0
XRECORD
  5
281
102
{ACAD_REACTORS
330
280
102
}
330
280
100
AcDbXrecord
280
     1
102
RTVSPropertyOp0
 70
     1
102
RTVSPropertyOp1
 70
     1
102
RTVSPropertyOp2
 70
     1
102
RTVSPropertyOp3
 70
     1
102
RTVSPropertyOp4
 70
     1
102
RTVSPropertyOp5
 70
     1
102
RTVSPropertyOp6
 70
     1
102
RTVSPropertyOp7
 70
     1
102
RTVSPropertyOp8
 70
     1
102
RTVSPropertyOp9
 70
     1
102
RTVSPropertyOp10
 70
     1
102
RTVSPropertyOp11
 70
     1
102
RTVSPropertyOp12
 70
     1
102
RTVSPropertyOp13
 70
     1
102
RTVSPropertyOp14
 70
     1
102
RTVSPropertyOp15
 70
     1
102
RTVSPropertyOp16
 70
     1
102
RTVSPropertyOp17
 70
     1
102
RTVSPropertyOp18
 70
     1
102
RTVSPropertyOp19
 70
     1
102
RTVSPropertyOp20
 70
     1
102
RTVSPropertyOp21
 70
     1
102
RTVSPropertyOp22
 70
     1
102
RTVSPropertyOp23
 70
     1
102
RTVSPropertyOp24
 70
     1
102
RTVSPropertyOp25
 70
     1
102
RTVSPropertyOp26
 70
     1
102
RTVSPropertyOp27
 70
     1
  0
XRECORD
  5
289
102
{ACAD_REACTORS
330
288
102
}
330
288
100
AcDbXrecord
280
     1
102
RTVSPropertyOp0
 70
     1
102
RTVSPropertyOp1
 70
     1
102
RTVSPropertyOp2
 70
     1
102
RTVSPropertyOp3
 70
     1
102
RTVSPropertyOp4
 70
     1
102
RTVSPropertyOp5
 70
     1
102
RTVSPropertyOp6
 70
     1
102
RTVSPropertyOp7
 70
     1
102
RTVSPropertyOp8
 70
     1
102
RTVSPropertyOp9
 70
     1
102
RTVSPropertyOp10
 70
     1
102
RTVSPropertyOp11
 70
     1
102
RTVSPropertyOp12
 70
     1
102
RTVSPropertyOp13
 70
     1
102
RTVSPropertyOp14
 70
     1
102
RTVSPropertyOp15
 70
     1
102
RTVSPropertyOp16
 70
     1
102
RTVSPropertyOp17
 70
     1
102
RTVSPropertyOp18
 70
     1
102
RTVSPropertyOp19
 70
     1
102
RTVSPropertyOp20
 70
     1
102
RTVSPropertyOp21
 70
     1
102
RTVSPropertyOp22
 70
     1
102
RTVSPropertyOp23
 70
     1
102
RTVSPropertyOp24
 70
     1
102
RTVSPropertyOp25
 70
     1
102
RTVSPropertyOp26
 70
     1
102
RTVSPropertyOp27
 70
     1
  0
ENDSEC
  0
EOF
